Завантажити та скачати торренти українською


Хамерман Знищує Віруси - НЯШ-МЯШ (EP) (2014) [FLAC] | Electronic / Indie

Нові коментарі

Нова тема   Відповісти
Останній раз роздавалося nolan32 (2016-12-04)
Автор Повідомлення
kolpavel 
VIP


З нами з: 04.05.14
Востаннє: 07.12.16
Повідомлень: 1059

2015-06-18 17:59  
Хамерман Знищує Віруси - НЯШ-МЯШ (EP) (2014) [FLAC] | Electronic / Indie

Хамерман Знищує Віруси - НЯШ-МЯШ (EP) (2014) [FLAC] | Electronic / Indie


Стиль: Electronic, Indie, Cabaret
Країна, місто: Україна, Суми
Видавець: Изда's top artists
Виконавці:
Володимир Пахолюк (вокал, тексти)
Альберт (Олег) Цукренко (вокал, музика)
Сергій Трушель (гітара)
Пісні:
    1. НЯШ-МЯШ - Гимн Крыма (май 2014)
    2. Грустный Кучма (2004)
    3. Янукович (листопад 2013)
    4. Порошенко (червень 2014, live @ Hromadske.tv)
    5. Кроваве забазарево 2014 (серпень 2014, live @ "16+" with Cthulhu Rise)

Тривалість: 00:15:15
Мова: українська в перемішку з росiйською
Аудіо-кодек: FLAC
Бітрейт: 722 кб/с
Джерело: Інтернет
Додаткова інформація:
Лог:
Exact Audio Copy V1.0 beta 3 from 29. August 2011

EAC extraction logfile from 8. January 2015, 21:08

Хамерман Знищує Віруси / НЯШ-МЯШ

Used drive : PIONEER DVD-RW DVR-K17LF Adapter: 0 ID: 0

Read mode : Secure
Utilize accurate stream : Yes
Defeat audio cache : Yes
Make use of C2 pointers : No

Read offset correction : 48
Overread into Lead-In and Lead-Out : No
Fill up missing offset samples with silence : Yes
Delete leading and trailing silent blocks : No
Null samples used in CRC calculations : Yes
Used interface : Native Win32 interface for Win NT & 2000

Used output format : User Defined Encoder
Selected bitrate : 1024 kBit/s
Quality : High
Add ID3 tag : No
Command line compressor : C:\bin\mmedia\EAC\FLAC\FLAC.EXE
Additional command line options : -8 -V -T "ARTIST=%artist%" -T "ALBUM=%albumtitle%" -T "DATE=%year%" %hascover%--picture="%coverfile%"%hascover% %source% -o %dest%

TOC of the extracted CD

Track | Start | Length | Start sector | End sector
---------------------------------------------------------
1 | 0:00.00 | 3:07.56 | 0 | 14080
2 | 3:07.56 | 2:20.08 | 14081 | 24588
3 | 5:27.64 | 3:06.58 | 24589 | 38596
4 | 8:34.47 | 2:42.12 | 38597 | 50758
5 | 11:16.59 | 3:58.72 | 50759 | 68680

Range status and errors

Selected range

Filename D:\flac\Хамерман_Знищує_Віруси-2014-НЯШ-МЯШ.wav

Peak level 72.7 %
Extraction speed 3.5 X
Range quality 100.0 %
Test CRC 30C79B85
Copy CRC 30C79B85
Copy OK

No errors occurred

AccurateRip summary

Track 1 not present in database
Track 2 not present in database
Track 3 not present in database
Track 4 not present in database
Track 5 not present in database

None of the tracks are present in the AccurateRip database

End of status report

---- CUETools DB Plugin V2.1.3

[CTDB TOCID: yIk5GAdBiFGKw4qxnJFcV3e_LlU-] disk not present in database, Submit result: yIk5GAdBiFGKw4qxnJFcV3e_LlU- has been uploaded

==== Log checksum 495F0EA2067C3ED2C8F27288A09E94915C9A71CCF07465F92CEDED0F51636670 ====


Якщо Ви справді бажаєте підтримати українське - після прослуховування, якщо музика вам сподобалась, придбайте ліцензійний диск. Підтримаймо вітчизняних виконавців!


Срібний реліз (на рейтинг впливає 50% завантаженого)
 Трекер:    Зареєстрований   

Завантажити / скачати українську музику



відео для новачків



 Зареєстрований:   2015-06-18 17:59
 Розмір:   79 MB 
 Оцінка музики:   10/10 (Голосів: 5)
   
Ваш часовий пояс: GMT + 2 Години

Нова тема   Відповісти