Завантажити та скачати торренти українською


Хамерман Знищує Віруси - Хочеться в Європу (2014) [FLAC] | Electronic / Indie

Нові коментарі

Нова тема   Відповісти
Останній раз роздавалося kolpavel (2016-11-14)
Автор Повідомлення
kolpavel 
VIP


З нами з: 04.05.14
Востаннє: 03.12.16
Повідомлень: 1060

2015-06-18 17:47  
Хамерман Знищує Віруси - Хочеться в Європу (2014) [FLAC] | Electronic / Indie

Хамерман Знищує Віруси - Хочеться в Європу (2014) [FLAC] | Electronic / Indie


Стиль: Electronic, Indie, Cabaret
Країна, місто: Україна, Суми
Видавець: Изда's top artists
Виконавці:
Володимир Пахолюк (вокал, тексти)
Альберт (Олег) Цукренко (вокал, музика)
Олег "Фагот" Михайлюта
Станiслав Бобрицький
Iван Ткаленко
Сергій Трушель (гітара)
Пісні:
    1. Хочеться в Європу
    2. Хочеться в Європу - лайв 2012
    3. Хочеться в Європу - кода

Тривалість: 00:09:23
Мова: українська
Аудіо-кодек: FLAC
Бітрейт: 1411 кб/с
Джерело: Інтернет
Додаткова інформація:
Лог:
Exact Audio Copy V1.0 beta 3 from 29. August 2011

EAC extraction logfile from 20. April 2014, 23:00

Хамерман Знищує Віруси / Хочеться в Європу

Used drive : DAEMON TOOLS Adapter: 6 ID: 0

Read mode : Fast

Read offset correction : 0
Overread into Lead-In and Lead-Out : No
Fill up missing offset samples with silence : Yes
Delete leading and trailing silent blocks : No
Null samples used in CRC calculations : Yes
Used interface : Native Win32 interface for Win NT & 2000

Used output format : User Defined Encoder
Selected bitrate : 1024 kBit/s
Quality : High
Add ID3 tag : No
Command line compressor : C:\bin\mmedia\EAC\FLAC\FLAC.EXE
Additional command line options : -8 -V -T "ARTIST=%artist%" -T "ALBUM=%albumtitle%" -T "DATE=%year%" %hascover%--picture="%coverfile%"%hascover% %source% -o %dest%

TOC of the extracted CD

Track | Start | Length | Start sector | End sector
---------------------------------------------------------
1 | 0:00.00 | 3:39.58 | 0 | 16482
2 | 3:39.58 | 4:34.54 | 16483 | 37086
3 | 8:14.37 | 1:09.00 | 37087 | 42261

Range status and errors

Selected range

Filename D:\flac\ХЗВ-2014-Хочеться_в_Європу.wav

Peak level 96.7 %
Extraction speed 70.1 X
Test CRC C17C07E3
Copy CRC C17C07E3
Copy OK

No errors occurred

End of status report

---- CUETools DB Plugin V2.1.3

[CTDB TOCID: DRMlAXrsvsYLGi6VoTPYOT6capg-] disk not present in database, Submit result: unrecognized or virtual drive

==== Log checksum 93CF269BC7A8A2DC702DA0BC89735F35B06B78274A3B169BF9C619A362E88367 ====


Якщо Ви справді бажаєте підтримати українське - після прослуховування, якщо музика вам сподобалась, придбайте ліцензійний диск. Підтримаймо вітчизняних виконавців!


Срібний реліз (на рейтинг впливає 50% завантаженого)
 Трекер:    Зареєстрований   

Завантажити / скачати українську музику



відео для новачків



 Зареєстрований:   2015-06-18 17:47
 Розмір:   50 MB 
 Оцінка музики:   7.8/10 (Голосів: 4)
   
Ваш часовий пояс: GMT + 2 Години

Нова тема   Відповісти