Завантажити та скачати торренти українською


Бойові роботи / Robo Warriors (1996) Eng | sub Ukr

Нові коментарі

Нова тема   Відповісти
Останній раз роздавалося qqq84jhd6 (2016-12-10)
Автор Повідомлення
andrew_crasher 
Свій


З нами з: 31.01.12
Востаннє: 11.11.16
Повідомлень: 55

2015-06-15 03:07  
Бойові роботи / Robo Warriors (1996) Eng | sub Ukr

Бойові роботи / Robo Warriors (1996) Eng | sub Ukr


Жанр: фантастика
Країна: США



Кінокомпанія: Paramount British Pictures, Premiere Entertainment Productions, Republic Pictures
Режисер: Ян Беррі
Актори: Джеймс Рімар / James Remar, Кайл Ховард / Kyle Howard, Джеймс Толкан / James Tolkan, Джеймс Лью / James Lew, Бернард Кейтс / Bernard Kates, Джеймс Віт / James With

Сюжет:
2036-й рік: Землю захоплено інопланетними загарбниками - терадаксами, які винищили практично всіх повстанців. Єдиний, хто вижив у сутичці - лейтенант Гібсон. Разом із юним Заком він відправляється назад у джунглі, щоб віднайти свого робота і дати відсіч загарбникам.


Тривалість: 01:29:24
Якість:
Відео:
кодек:
розмір кадру: 720 х 544
бітрейт: 1811 кб/с
частота кадрів/сек: 25
контейнер: *.mkv

Аудіо:
мова: англійська
переклад: оригінал
кодек: 2.0
бітрейт: 224 кб/с

Субтитри:
мова: українська
тип: програмні (м'які)
формат: *.srt
переклад: andrew_crasher
MediaInfo

General
Unique ID : 250306593422466961228619416617744364392 (0xBC4F4BDDEBA9DE7082C858135A507368)
Format : Matroska
Format version : Version 4 / Version 2
File size : 1.30 GiB
Duration : 1h 29mn
Overall bit rate : 2 077 Kbps
Encoded date : UTC 2015-06-15 00:08:54
Writing application : mkvmerge v7.5.0 ('Glass Culture') 64bit built on Jan 4 2015 16:48:44
Writing library : libebml v1.3.1 + libmatroska v1.4.2
DURATION : 01:26:29.264000000
NUMBER_OF_FRAMES : 738
NUMBER_OF_BYTES : 44647
_STATISTICS_WRITING_APP : mkvmerge v7.5.0 ('Glass Culture') 64bit built on Jan 4 2015 16:48:44
_STATISTICS_WRITING_DATE_UTC : 2015-06-15 00:08:54
_STATISTICS_TAGS : BPS DURATION NUMBER_OF_FRAMES NUMBER_OF_BYTES

Video
ID : 1
Format : MPEG-4 Visual
Format profile : Advanced [email protected]
Format settings, BVOP : 2
Format settings, QPel : No
Format settings, GMC : No warppoints
Format settings, Matrix : Default (MPEG)
Codec ID : V_MS/VFW/FOURCC /
Codec ID/Hint :
Duration : 1h 29mn
Bit rate : 1 811 Kbps
Width : 720 pixels
Height : 544 pixels
Display aspect ratio : 4:3
Frame rate mode : Constant
Frame rate : 25.000 fps
Color space : YUV
Chroma subsampling : 4:2:0
Bit depth : 8 bits
Scan type : Progressive
Compression mode : Lossy
Bits/(Pixel*Frame) : 0.185
Stream size : 1.13 GiB (87%)
Writing library : 1.2.1 (UTC 2008-12-04)
Default : Yes
Forced : No

Audio
ID : 2
Format : AC-3
Format/Info : Audio Coding 3
Mode extension : CM (complete main)
Format settings, Endianness : Big
Codec ID : A_AC3
Duration : 1h 29mn
Bit rate mode : Constant
Bit rate : 224 Kbps
Channel(s) : 2 channels
Channel positions : Front: L R
Sampling rate : 48.0 KHz
Compression mode : Lossy
Stream size : 143 MiB (11%)
Default : Yes
Forced : No

Text
ID : 3
Format : UTF-8
Codec ID : S_TEXT/UTF8
Codec ID/Info : UTF-8 Plain Text
Language : Ukrainian
Default : Yes
Forced : Yes
Скріншоти




Джерело:
Особиста оцінка: 5 - кіно для дитячної аудиторії


Золотий реліз (завантажене не впливає на рейтинг)
 Трекер:    Зареєстрований   

Завантажити / скачати фільм українською



відео для новачків



 Зареєстрований:   2015-06-15 03:07
 Розмір:   1.3 GB 
 Оцінка фільму:   8.6/10 (Голосів: 5)
   
weareua 
Новенький


З нами з: 18.02.10
Востаннє: 20.11.16
Повідомлень: 4

2015-06-15 09:40  
Довго шукав цей фільм. Але недавно знайшов і переглянув в оригіналі.
Палкий привіт з дитинства. Спасибі, за ще одну згадку про нього)

Zombie35 
Свій


З нами з: 25.07.12
Востаннє: 09.12.16
Повідомлень: 128

2015-06-15 10:39  
Коли я був малий мені подобалось це кіно
Leshchyshyn 
VIP


З нами з: 20.07.09
Востаннє: 02.12.16
Повідомлень: 470

2015-06-15 17:40  
Вау! Теж давно шукав цей фільм, але не знав назви.
robotron005 
Відео Гуртом - фільмокрай
Відео Гуртом - фільмокрай


З нами з: 29.01.09
Востаннє: 10.12.16
Повідомлень: 2989

2015-06-15 20:47  
це той фільм, де у джунглях валявся робот. Потім в нього залізли, та почався бій?
SaratRich 
Поважний учасник


З нами з: 29.05.12
Востаннє: 10.12.16
Повідомлень: 185

2015-06-15 21:27  
Я його дививя в 5 років! Можна сказати все життя шукав. от він тут... Wink (2) Велике дякую!
andrew_crasher 
Свій


З нами з: 31.01.12
Востаннє: 11.11.16
Повідомлень: 55

2015-06-15 22:38  
Цитата:
це той фільм, де у джунглях валявся робот. Потім в нього залізли, та почався бій?

Так, саме той фільм.

Ваш часовий пояс: GMT + 2 Години

Нова тема   Відповісти