Завантажити та скачати торренти українською


Океан Ельзи - Избранное (2CD) (2013) [FLAC] | Rock

Нові коментарі

Нова тема   Відповісти
Автор Повідомлення
kolpavel 
VIP


З нами з: 04.05.14
Востаннє: 10.12.16
Повідомлень: 1062

2015-06-14 22:34  
Океан Ельзи - Избранное (2CD) (2013) [FLAC] | Rock

Океан Ельзи - Избранное (2CD) (2013) [FLAC] | Rock


Стиль: Rock
Країна, місто: Україна, Львів
Сайти: Офіційний сайт
Видавець: Nikitin
Виконавці:
Святослав Вакарчук — вокал
Денис Глінін — ударні
Денис Дудко — бас-гітара
Мілош Єліч — клавішні
Владімір Опсеніца — гітара
Пісні:
    CD 1

    Океан Ельзи - Избранное (2CD) (2013) [FLAC] | Rock

    01. Там, де нас нема (3:29)
    02. 911 (3:29)
    03. Без бою (4:20)
    04. Сосни (4:29)
    05. 18 хвилин (4:26)
    06. Онлайн (3:54)
    07. Позич менi сонце (4:07)
    08. Новий день (2:48)
    09. Кавачай (4:38)
    10. Майже весна (4:12)
    11. Коко Шанель (3:58)
    12. Бiльше для нас (3:32)
    13. Той день (3:57)
    14. Стрiляй (4:48)
    15. Ти собi сама (3:51)
    16. З нею (5:00)
    17. Вище неба (4:00)
    18. Кiшка (3:52)
    19. Я так хочу... (4:41)
    Тривалість: 01:17:30
    Мова: українська
    CD 2

    Океан Ельзи - Избранное (2CD) (2013) [FLAC] | Rock

    01. Вiдпусти (3:50)
    02. Мало менi (5:02)
    03. Susy (4:02)
    04. Rendez-vous (4:10)
    05. На лiнii вогню (3:03)
    06. Дiвчина (з iншого життя) (3:40)
    07. Ночi i днi (3:03)
    08. Квiтка (4:17)
    09. Холодно (4:33)
    10. Друг (5:28)
    11. Сьогоднi (3:27)
    12. Пташка (2:45)
    13. Голос твiй (3:55)
    14. На небi (3:43)
    15. Не питай (2:37)
    16. Небо над Днiпром (4:18)
    17. Dolce Vita (5:12)
    18. Компас (4:28)
    19. Обiйми (3:42)
    Тривалість: 01:15:17
    Мова: українська

Тривалість: 02:32:47
Мова: українська
Аудіо-кодек: FLAC
Бітрейт: 826-1060 кб/с
Джерело: Інтернет
Додаткова інформація:
CD1 Лог:
Exact Audio Copy V1.0 beta 3 from 29. August 2011

Отчёт EAC об извлечении, выполненном 18. ноября 2013, 13:26

Океан Ельзы / Избранное [CD 1]

Дисковод: PIONEER DVD-RW DVR-218L Adapter: 0 ID: 0

Режим чтения : Достоверность
Использование точного потока : Да
Отключение кэша аудио : Да
Использование указателей C2 : Нет

Коррекция смещения при чтении : 6
Способность читать области Lead-in и Lead-out : Нет
Заполнение пропущенных сэмплов тишиной : Да
Удаление блоков с тишиной в начале и конце : Нет
При вычислениях CRC использовались нулевые сэмплы : Да
Интерфейс : Встроенный Win32-интерфейс для Win NT/2000
Обработка зазоров : Добавлено к предыдущему треку

Выходной формат : Пользовательский кодировщик
Выбранный битрейт : 128 kBit/s
Качество : Высокий
Добавление ID3-тега : Нет
Утилита сжатия : C:\Program Files (x86)\Exact Audio Copy\Flac\flac.exe
Дополнительные параметры : -V -7 -T "Genre=%genre%" -T "Artist=%artist%" -T "Title=%title%" -T "Album=%albumtitle%" -T "Date=%year%" -T "Tracknumber=%tracknr%" -T "Comment=%comment%" %source%

TOC извлечённого CD

Трек | Старт | Длительность | Начальный сектор | Конечный сектор
---------------------------------------------------------------------
1 | 0:00.00 | 3:29.01 | 0 | 15675
2 | 3:29.01 | 3:28.70 | 15676 | 31345
3 | 6:57.71 | 4:20.32 | 31346 | 50877
4 | 11:18.28 | 4:29.06 | 50878 | 71058
5 | 15:47.34 | 4:25.70 | 71059 | 91003
6 | 20:13.29 | 3:53.38 | 91004 | 108516
7 | 24:06.67 | 4:06.67 | 108517 | 127033
8 | 28:13.59 | 2:48.19 | 127034 | 139652
9 | 31:02.03 | 4:38.30 | 139653 | 160532
10 | 35:40.33 | 4:11.46 | 160533 | 179403
11 | 39:52.04 | 3:57.40 | 179404 | 197218
12 | 43:49.44 | 3:32.07 | 197219 | 213125
13 | 47:21.51 | 3:57.22 | 213126 | 230922
14 | 51:18.73 | 4:48.09 | 230923 | 252531
15 | 56:07.07 | 3:51.11 | 252532 | 269867
16 | 59:58.18 | 4:59.51 | 269868 | 292343
17 | 64:57.69 | 3:59.61 | 292344 | 310329
18 | 68:57.55 | 3:51.41 | 310330 | 327695
19 | 72:49.21 | 4:41.12 | 327696 | 348782

Трек 1

Имя файла E:\_VIDEO\_seriaЛЫ_\!!!muz\Океан Ельзи - Избранное (2xCD) - 2013\CD 1\01 Там, де нас нема.wav

Длина предзазора 0:00:02.00

Пиковый уровень 98.8 %
Скорость извлечения 1.1 X
Качество трека 100.0 %
CRC теста 790ADA5D
CRC копии 790ADA5D
Трек не обнаружен в базе AccurateRip
Копирование... OK

Трек 2

Имя файла E:\_VIDEO\_seriaЛЫ_\!!!muz\Океан Ельзи - Избранное (2xCD) - 2013\CD 1\02 911.wav

Длина предзазора 0:00:02.00

Пиковый уровень 98.8 %
Скорость извлечения 1.2 X
Качество трека 100.0 %
CRC теста 6B7BE15C
CRC копии 6B7BE15C
Трек не обнаружен в базе AccurateRip
Копирование... OK

Трек 3

Имя файла E:\_VIDEO\_seriaЛЫ_\!!!muz\Океан Ельзи - Избранное (2xCD) - 2013\CD 1\03 Без бою.wav

Длина предзазора 0:00:02.00

Пиковый уровень 98.8 %
Скорость извлечения 1.4 X
Качество трека 100.0 %
CRC теста FC24DD56
CRC копии FC24DD56
Трек не обнаружен в базе AccurateRip
Копирование... OK

Трек 4

Имя файла E:\_VIDEO\_seriaЛЫ_\!!!muz\Океан Ельзи - Избранное (2xCD) - 2013\CD 1\04 Сосни.wav

Длина предзазора 0:00:02.00

Пиковый уровень 98.8 %
Скорость извлечения 1.5 X
Качество трека 100.0 %
CRC теста 1A1ECDC2
CRC копии 1A1ECDC2
Трек не обнаружен в базе AccurateRip
Копирование... OK

Трек 5

Имя файла E:\_VIDEO\_seriaЛЫ_\!!!muz\Океан Ельзи - Избранное (2xCD) - 2013\CD 1\05 18 хвилин.wav

Длина предзазора 0:00:02.00

Пиковый уровень 98.8 %
Скорость извлечения 1.4 X
Качество трека 99.9 %
CRC теста 4C37BD3C
CRC копии 4C37BD3C
Трек не обнаружен в базе AccurateRip
Копирование... OK

Трек 6

Имя файла E:\_VIDEO\_seriaЛЫ_\!!!muz\Океан Ельзи - Избранное (2xCD) - 2013\CD 1\06 Онлайн.wav

Длина предзазора 0:00:02.00

Пиковый уровень 98.8 %
Скорость извлечения 1.7 X
Качество трека 100.0 %
CRC теста BEA3700C
CRC копии BEA3700C
Трек не обнаружен в базе AccurateRip
Копирование... OK

Трек 7

Имя файла E:\_VIDEO\_seriaЛЫ_\!!!muz\Океан Ельзи - Избранное (2xCD) - 2013\CD 1\07 Позич менi сонце.wav

Длина предзазора 0:00:02.00

Пиковый уровень 98.8 %
Скорость извлечения 1.8 X
Качество трека 100.0 %
CRC теста FA735BAF
CRC копии FA735BAF
Трек не обнаружен в базе AccurateRip
Копирование... OK

Трек 8

Имя файла E:\_VIDEO\_seriaЛЫ_\!!!muz\Океан Ельзи - Избранное (2xCD) - 2013\CD 1\08 Новий день.wav

Длина предзазора 0:00:02.00

Пиковый уровень 98.8 %
Скорость извлечения 1.7 X
Качество трека 100.0 %
CRC теста B8E0C06A
CRC копии B8E0C06A
Трек не обнаружен в базе AccurateRip
Копирование... OK

Трек 9

Имя файла E:\_VIDEO\_seriaЛЫ_\!!!muz\Океан Ельзи - Избранное (2xCD) - 2013\CD 1\09 Кавачай.wav

Длина предзазора 0:00:02.00

Пиковый уровень 98.8 %
Скорость извлечения 1.9 X
Качество трека 100.0 %
CRC теста 996D1126
CRC копии 996D1126
Трек не обнаружен в базе AccurateRip
Копирование... OK

Трек 10

Имя файла E:\_VIDEO\_seriaЛЫ_\!!!muz\Океан Ельзи - Избранное (2xCD) - 2013\CD 1\10 Майже весна.wav

Длина предзазора 0:00:02.00

Пиковый уровень 98.8 %
Скорость извлечения 2.0 X
Качество трека 100.0 %
CRC теста 82112B2B
CRC копии 82112B2B
Трек не обнаружен в базе AccurateRip
Копирование... OK

Трек 11

Имя файла E:\_VIDEO\_seriaЛЫ_\!!!muz\Океан Ельзи - Избранное (2xCD) - 2013\CD 1\11 Коко Шанель.wav

Длина предзазора 0:00:02.00

Пиковый уровень 98.8 %
Скорость извлечения 2.0 X
Качество трека 100.0 %
CRC теста 7F64162D
CRC копии 7F64162D
Трек не обнаружен в базе AccurateRip
Копирование... OK

Трек 12

Имя файла E:\_VIDEO\_seriaЛЫ_\!!!muz\Океан Ельзи - Избранное (2xCD) - 2013\CD 1\12 Бiльше для нас.wav

Длина предзазора 0:00:02.00

Пиковый уровень 98.8 %
Скорость извлечения 2.1 X
Качество трека 100.0 %
CRC теста EBE7D30B
CRC копии EBE7D30B
Трек не обнаружен в базе AccurateRip
Копирование... OK

Трек 13

Имя файла E:\_VIDEO\_seriaЛЫ_\!!!muz\Океан Ельзи - Избранное (2xCD) - 2013\CD 1\13 Той день.wav

Длина предзазора 0:00:02.00

Пиковый уровень 98.8 %
Скорость извлечения 2.2 X
Качество трека 100.0 %
CRC теста 9459FAF0
CRC копии 9459FAF0
Трек не обнаружен в базе AccurateRip
Копирование... OK

Трек 14

Имя файла E:\_VIDEO\_seriaЛЫ_\!!!muz\Океан Ельзи - Избранное (2xCD) - 2013\CD 1\14 Стрiляй.wav

Длина предзазора 0:00:02.00

Пиковый уровень 98.8 %
Скорость извлечения 2.3 X
Качество трека 100.0 %
CRC теста 31A01150
CRC копии 31A01150
Трек не обнаружен в базе AccurateRip
Копирование... OK

Трек 15

Имя файла E:\_VIDEO\_seriaЛЫ_\!!!muz\Океан Ельзи - Избранное (2xCD) - 2013\CD 1\15 Ти собi сама.wav

Длина предзазора 0:00:02.00

Пиковый уровень 98.8 %
Скорость извлечения 2.3 X
Качество трека 100.0 %
CRC теста 0A768652
CRC копии 0A768652
Трек не обнаружен в базе AccurateRip
Копирование... OK

Трек 16

Имя файла E:\_VIDEO\_seriaЛЫ_\!!!muz\Океан Ельзи - Избранное (2xCD) - 2013\CD 1\16 З нею.wav

Длина предзазора 0:00:02.00

Пиковый уровень 98.8 %
Скорость извлечения 2.4 X
Качество трека 100.0 %
CRC теста 6115F9F2
CRC копии 6115F9F2
Трек не обнаружен в базе AccurateRip
Копирование... OK

Трек 17

Имя файла E:\_VIDEO\_seriaЛЫ_\!!!muz\Океан Ельзи - Избранное (2xCD) - 2013\CD 1\17 Вище неба.wav

Длина предзазора 0:00:02.00

Пиковый уровень 98.8 %
Скорость извлечения 2.4 X
Качество трека 100.0 %
CRC теста D902E94D
CRC копии D902E94D
Трек не обнаружен в базе AccurateRip
Копирование... OK

Трек 18

Имя файла E:\_VIDEO\_seriaЛЫ_\!!!muz\Океан Ельзи - Избранное (2xCD) - 2013\CD 1\18 Кiшка.wav

Длина предзазора 0:00:02.00

Пиковый уровень 98.8 %
Скорость извлечения 2.5 X
Качество трека 100.0 %
CRC теста F38839E9
CRC копии F38839E9
Трек не обнаружен в базе AccurateRip
Копирование... OK

Трек 19

Имя файла E:\_VIDEO\_seriaЛЫ_\!!!muz\Океан Ельзи - Избранное (2xCD) - 2013\CD 1\19 Я так хочу....wav

Длина предзазора 0:00:02.00

Пиковый уровень 98.8 %
Скорость извлечения 2.6 X
Качество трека 100.0 %
CRC теста E74D1DF7
CRC копии E74D1DF7
Трек не обнаружен в базе AccurateRip
Копирование... OK

Ни одного трека нет в базе AccurateRip

Ошибок не произошло

Конец отчёта

==== Контрольная сумма отчёта F7919929AAAFCCB3325A5CB350B5829430271665C5D1EDADD74310C1A6A901B3 ====
CD1 (.CUE):
REM GENRE Rock
REM DATE 2013
REM DISCID 19122A13
REM COMMENT "ExactAudioCopy v1.0b3"
PERFORMER "Океан Ельзы"
TITLE "Избранное [CD 1]"
FILE "01 Там, де нас нема.wav" WAVE
TRACK 01 AUDIO
TITLE "Там, де нас нема"
PERFORMER "Океан Ельзы"
FLAGS DCP
INDEX 01 00:00:00
TRACK 02 AUDIO
TITLE "911"
PERFORMER "Океан Ельзы"
FLAGS DCP
INDEX 00 03:27:01
FILE "02 911.wav" WAVE
INDEX 01 00:00:00
TRACK 03 AUDIO
TITLE "Без бою"
PERFORMER "Океан Ельзы"
FLAGS DCP
INDEX 00 03:26:70
FILE "03 Без бою.wav" WAVE
INDEX 01 00:00:00
TRACK 04 AUDIO
TITLE "Сосни"
PERFORMER "Океан Ельзы"
FLAGS DCP
INDEX 00 04:18:32
FILE "04 Сосни.wav" WAVE
INDEX 01 00:00:00
TRACK 05 AUDIO
TITLE "18 хвилин"
PERFORMER "Океан Ельзы"
FLAGS DCP
INDEX 00 04:27:06
FILE "05 18 хвилин.wav" WAVE
INDEX 01 00:00:00
TRACK 06 AUDIO
TITLE "Онлайн"
PERFORMER "Океан Ельзы"
FLAGS DCP
INDEX 00 04:23:70
FILE "06 Онлайн.wav" WAVE
INDEX 01 00:00:00
TRACK 07 AUDIO
TITLE "Позич менi сонце"
PERFORMER "Океан Ельзы"
FLAGS DCP
INDEX 00 03:51:38
FILE "07 Позич менi сонце.wav" WAVE
INDEX 01 00:00:00
TRACK 08 AUDIO
TITLE "Новий день"
PERFORMER "Океан Ельзы"
FLAGS DCP
INDEX 00 04:04:67
FILE "08 Новий день.wav" WAVE
INDEX 01 00:00:00
TRACK 09 AUDIO
TITLE "Кавачай"
PERFORMER "Океан Ельзы"
FLAGS DCP
INDEX 00 02:46:19
FILE "09 Кавачай.wav" WAVE
INDEX 01 00:00:00
TRACK 10 AUDIO
TITLE "Майже весна"
PERFORMER "Океан Ельзы"
FLAGS DCP
INDEX 00 04:36:30
FILE "10 Майже весна.wav" WAVE
INDEX 01 00:00:00
TRACK 11 AUDIO
TITLE "Коко Шанель"
PERFORMER "Океан Ельзы"
FLAGS DCP
INDEX 00 04:09:46
FILE "11 Коко Шанель.wav" WAVE
INDEX 01 00:00:00
TRACK 12 AUDIO
TITLE "Бiльше для нас"
PERFORMER "Океан Ельзы"
FLAGS DCP
INDEX 00 03:55:40
FILE "12 Бiльше для нас.wav" WAVE
INDEX 01 00:00:00
TRACK 13 AUDIO
TITLE "Той день"
PERFORMER "Океан Ельзы"
FLAGS DCP
INDEX 00 03:30:07
FILE "13 Той день.wav" WAVE
INDEX 01 00:00:00
TRACK 14 AUDIO
TITLE "Стрiляй"
PERFORMER "Океан Ельзы"
FLAGS DCP
INDEX 00 03:55:22
FILE "14 Стрiляй.wav" WAVE
INDEX 01 00:00:00
TRACK 15 AUDIO
TITLE "Ти собi сама"
PERFORMER "Океан Ельзы"
FLAGS DCP
INDEX 00 04:46:09
FILE "15 Ти собi сама.wav" WAVE
INDEX 01 00:00:00
TRACK 16 AUDIO
TITLE "З нею"
PERFORMER "Океан Ельзы"
FLAGS DCP
INDEX 00 03:49:11
FILE "16 З нею.wav" WAVE
INDEX 01 00:00:00
TRACK 17 AUDIO
TITLE "Вище неба"
PERFORMER "Океан Ельзы"
FLAGS DCP
INDEX 00 04:57:51
FILE "17 Вище неба.wav" WAVE
INDEX 01 00:00:00
TRACK 18 AUDIO
TITLE "Кiшка"
PERFORMER "Океан Ельзы"
FLAGS DCP
INDEX 00 03:57:61
FILE "18 Кiшка.wav" WAVE
INDEX 01 00:00:00
TRACK 19 AUDIO
TITLE "Я так хочу..."
PERFORMER "Океан Ельзы"
FLAGS DCP
INDEX 00 03:49:41
FILE "19 Я так хочу....wav" WAVE
INDEX 01 00:00:00
CD2 Лог:
Exact Audio Copy V1.0 beta 3 from 29. August 2011

Отчёт EAC об извлечении, выполненном 18. ноября 2013, 15:01

Океан Ельзы / Избранное [CD 2]

Дисковод: PIONEER DVD-RW DVR-218L Adapter: 0 ID: 0

Режим чтения : Достоверность
Использование точного потока : Да
Отключение кэша аудио : Да
Использование указателей C2 : Нет

Коррекция смещения при чтении : 6
Способность читать области Lead-in и Lead-out : Нет
Заполнение пропущенных сэмплов тишиной : Да
Удаление блоков с тишиной в начале и конце : Нет
При вычислениях CRC использовались нулевые сэмплы : Да
Интерфейс : Встроенный Win32-интерфейс для Win NT/2000
Обработка зазоров : Добавлено к предыдущему треку

Выходной формат : Пользовательский кодировщик
Выбранный битрейт : 128 kBit/s
Качество : Высокий
Добавление ID3-тега : Нет
Утилита сжатия : C:\Program Files (x86)\Exact Audio Copy\Flac\flac.exe
Дополнительные параметры : -V -7 -T "Genre=%genre%" -T "Artist=%artist%" -T "Title=%title%" -T "Album=%albumtitle%" -T "Date=%year%" -T "Tracknumber=%tracknr%" -T "Comment=%comment%" %source%

TOC извлечённого CD

Трек | Старт | Длительность | Начальный сектор | Конечный сектор
---------------------------------------------------------------------
1 | 0:00.00 | 3:50.34 | 0 | 17283
2 | 3:50.34 | 5:02.33 | 17284 | 39966
3 | 8:52.67 | 4:02.07 | 39967 | 58123
4 | 12:54.74 | 4:09.58 | 58124 | 76856
5 | 17:04.57 | 3:03.05 | 76857 | 90586
6 | 20:07.62 | 3:40.07 | 90587 | 107093
7 | 23:47.69 | 3:03.03 | 107094 | 120821
8 | 26:50.72 | 4:16.61 | 120822 | 140082
9 | 31:07.58 | 4:33.10 | 140083 | 160567
10 | 35:40.68 | 5:28.36 | 160568 | 185203
11 | 41:09.29 | 3:26.73 | 185204 | 200726
12 | 44:36.27 | 2:44.57 | 200727 | 213083
13 | 47:21.09 | 3:55.28 | 213084 | 230736
14 | 51:16.37 | 3:42.73 | 230737 | 247459
15 | 54:59.35 | 2:37.12 | 247460 | 259246
16 | 57:36.47 | 4:17.63 | 259247 | 278584
17 | 61:54.35 | 5:12.09 | 278585 | 301993
18 | 67:06.44 | 4:27.73 | 301994 | 322091
19 | 71:34.42 | 3:42.34 | 322092 | 338775

Трек 1

Имя файла E:\_VIDEO\_seriaЛЫ_\!!!muz\Океан Ельзи - Избранное (2xCD) - 2013\CD 2\01 Вiдпусти.wav

Длина предзазора 0:00:02.00

Пиковый уровень 98.8 %
Скорость извлечения 1.1 X
Качество трека 100.0 %
CRC теста 0F29BE48
CRC копии 0F29BE48
Трек не обнаружен в базе AccurateRip
Копирование... OK

Трек 2

Имя файла E:\_VIDEO\_seriaЛЫ_\!!!muz\Океан Ельзи - Избранное (2xCD) - 2013\CD 2\02 Мало менi.wav

Длина предзазора 0:00:02.00

Пиковый уровень 98.8 %
Скорость извлечения 1.2 X
Качество трека 99.9 %
CRC теста 94FF49CB
CRC копии 94FF49CB
Трек не обнаружен в базе AccurateRip
Копирование... OK

Трек 3

Имя файла E:\_VIDEO\_seriaЛЫ_\!!!muz\Океан Ельзи - Избранное (2xCD) - 2013\CD 2\03 Susy.wav

Длина предзазора 0:00:02.00

Пиковый уровень 98.8 %
Скорость извлечения 1.4 X
Качество трека 100.0 %
CRC теста C8834115
CRC копии C8834115
Трек не обнаружен в базе AccurateRip
Копирование... OK

Трек 4

Имя файла E:\_VIDEO\_seriaЛЫ_\!!!muz\Океан Ельзи - Избранное (2xCD) - 2013\CD 2\04 Rendez-vous.wav

Длина предзазора 0:00:02.00

Пиковый уровень 98.8 %
Скорость извлечения 1.5 X
Качество трека 100.0 %
CRC теста D9721473
CRC копии D9721473
Трек не обнаружен в базе AccurateRip
Копирование... OK

Трек 5

Имя файла E:\_VIDEO\_seriaЛЫ_\!!!muz\Океан Ельзи - Избранное (2xCD) - 2013\CD 2\05 На лiнii вогню.wav

Длина предзазора 0:00:02.00

Пиковый уровень 98.8 %
Скорость извлечения 1.5 X
Качество трека 100.0 %
CRC теста 136E57C3
CRC копии 136E57C3
Трек не обнаружен в базе AccurateRip
Копирование... OK

Трек 6

Имя файла E:\_VIDEO\_seriaЛЫ_\!!!muz\Океан Ельзи - Избранное (2xCD) - 2013\CD 2\06 Дiвчина (з iншого життя).wav

Длина предзазора 0:00:02.00

Пиковый уровень 98.8 %
Скорость извлечения 1.4 X
Качество трека 99.9 %
CRC теста E2734F0C
CRC копии E2734F0C
Трек не обнаружен в базе AccurateRip
Копирование... OK

Трек 7

Имя файла E:\_VIDEO\_seriaЛЫ_\!!!muz\Океан Ельзи - Избранное (2xCD) - 2013\CD 2\07 Ночi i днi.wav

Длина предзазора 0:00:02.00

Пиковый уровень 98.8 %
Скорость извлечения 1.6 X
Качество трека 100.0 %
CRC теста 1F923389
CRC копии 1F923389
Трек не обнаружен в базе AccurateRip
Копирование... OK

Трек 8

Имя файла E:\_VIDEO\_seriaЛЫ_\!!!muz\Океан Ельзи - Избранное (2xCD) - 2013\CD 2\08 Квiтка.wav

Длина предзазора 0:00:02.00

Пиковый уровень 98.8 %
Скорость извлечения 1.8 X
Качество трека 100.0 %
CRC теста 5649BE54
CRC копии 5649BE54
Трек не обнаружен в базе AccurateRip
Копирование... OK

Трек 9

Имя файла E:\_VIDEO\_seriaЛЫ_\!!!muz\Океан Ельзи - Избранное (2xCD) - 2013\CD 2\09 Холодно.wav

Длина предзазора 0:00:02.00

Пиковый уровень 98.8 %
Скорость извлечения 1.9 X
Качество трека 100.0 %
CRC теста 33DEA9E9
CRC копии 33DEA9E9
Трек не обнаружен в базе AccurateRip
Копирование... OK

Трек 10

Имя файла E:\_VIDEO\_seriaЛЫ_\!!!muz\Океан Ельзи - Избранное (2xCD) - 2013\CD 2\10 Друг.wav

Длина предзазора 0:00:02.00

Пиковый уровень 98.8 %
Скорость извлечения 2.0 X
Качество трека 100.0 %
CRC теста 0463C3B0
CRC копии 0463C3B0
Трек не обнаружен в базе AccurateRip
Копирование... OK

Трек 11

Имя файла E:\_VIDEO\_seriaЛЫ_\!!!muz\Океан Ельзи - Избранное (2xCD) - 2013\CD 2\11 Сьогоднi.wav

Длина предзазора 0:00:02.00

Пиковый уровень 98.8 %
Скорость извлечения 2.0 X
Качество трека 100.0 %
CRC теста C709046E
CRC копии C709046E
Трек не обнаружен в базе AccurateRip
Копирование... OK

Трек 12

Имя файла E:\_VIDEO\_seriaЛЫ_\!!!muz\Океан Ельзи - Избранное (2xCD) - 2013\CD 2\12 Пташка.wav

Длина предзазора 0:00:02.00

Пиковый уровень 98.8 %
Скорость извлечения 2.0 X
Качество трека 100.0 %
CRC теста 3C591670
CRC копии 3C591670
Трек не обнаружен в базе AccurateRip
Копирование... OK

Трек 13

Имя файла E:\_VIDEO\_seriaЛЫ_\!!!muz\Океан Ельзи - Избранное (2xCD) - 2013\CD 2\13 Голос твiй.wav

Длина предзазора 0:00:02.00

Пиковый уровень 98.8 %
Скорость извлечения 1.8 X
Качество трека 99.9 %
CRC теста DBD00A9C
CRC копии DBD00A9C
Трек не обнаружен в базе AccurateRip
Копирование... OK

Трек 14

Имя файла E:\_VIDEO\_seriaЛЫ_\!!!muz\Океан Ельзи - Избранное (2xCD) - 2013\CD 2\14 На небi.wav

Длина предзазора 0:00:02.00

Пиковый уровень 98.8 %
Скорость извлечения 2.1 X
Качество трека 100.0 %
CRC теста 1384278D
CRC копии 1384278D
Трек не обнаружен в базе AccurateRip
Копирование... OK

Трек 15

Имя файла E:\_VIDEO\_seriaЛЫ_\!!!muz\Океан Ельзи - Избранное (2xCD) - 2013\CD 2\15 Не питай.wav

Длина предзазора 0:00:02.00

Пиковый уровень 98.8 %
Скорость извлечения 2.1 X
Качество трека 100.0 %
CRC теста 90FF2C90
CRC копии 90FF2C90
Трек не обнаружен в базе AccurateRip
Копирование... OK

Трек 16

Имя файла E:\_VIDEO\_seriaЛЫ_\!!!muz\Океан Ельзи - Избранное (2xCD) - 2013\CD 2\16 Небо над Днiпром.wav

Длина предзазора 0:00:02.00

Пиковый уровень 98.8 %
Скорость извлечения 2.3 X
Качество трека 100.0 %
CRC теста A3B78D5E
CRC копии A3B78D5E
Трек не обнаружен в базе AccurateRip
Копирование... OK

Трек 17

Имя файла E:\_VIDEO\_seriaЛЫ_\!!!muz\Океан Ельзи - Избранное (2xCD) - 2013\CD 2\17 Dolce Vita.wav

Длина предзазора 0:00:02.00

Пиковый уровень 98.8 %
Скорость извлечения 2.4 X
Качество трека 100.0 %
CRC теста 6DC6D852
CRC копии 6DC6D852
Трек не обнаружен в базе AccurateRip
Копирование... OK

Трек 18

Имя файла E:\_VIDEO\_seriaЛЫ_\!!!muz\Океан Ельзи - Избранное (2xCD) - 2013\CD 2\18 Компас.wav

Длина предзазора 0:00:02.00

Пиковый уровень 98.8 %
Скорость извлечения 2.4 X
Качество трека 100.0 %
CRC теста F6583CEB
CRC копии F6583CEB
Трек не обнаружен в базе AccurateRip
Копирование... OK

Трек 19

Имя файла E:\_VIDEO\_seriaЛЫ_\!!!muz\Океан Ельзи - Избранное (2xCD) - 2013\CD 2\19 Обiйми.wav

Длина предзазора 0:00:02.00

Пиковый уровень 98.8 %
Скорость извлечения 2.1 X
Качество трека 99.9 %
CRC теста D58483FA
CRC копии D58483FA
Трек не обнаружен в базе AccurateRip
Копирование... OK

Ни одного трека нет в базе AccurateRip

Ошибок не произошло

Конец отчёта

==== Контрольная сумма отчёта BFD53F784B6A3630D7298D3FAA1F60B1B9ACC2535C29DFB4B57FD6D4608FC9D3 ====
CD2 (.CUE):
REM GENRE Rock
REM DATE 2013
REM DISCID 1111A513
REM COMMENT "ExactAudioCopy v1.0b3"
PERFORMER "Океан Ельзы"
TITLE "Избранное [CD 2]"
FILE "01 Вiдпусти.wav" WAVE
TRACK 01 AUDIO
TITLE "Вiдпусти"
PERFORMER "Океан Ельзы"
FLAGS DCP
INDEX 01 00:00:00
TRACK 02 AUDIO
TITLE "Мало менi"
PERFORMER "Океан Ельзы"
FLAGS DCP
INDEX 00 03:48:34
FILE "02 Мало менi.wav" WAVE
INDEX 01 00:00:00
TRACK 03 AUDIO
TITLE "Susy"
PERFORMER "Океан Ельзы"
FLAGS DCP
INDEX 00 05:00:33
FILE "03 Susy.wav" WAVE
INDEX 01 00:00:00
TRACK 04 AUDIO
TITLE "Rendez-vous"
PERFORMER "Океан Ельзы"
FLAGS DCP
INDEX 00 04:00:07
FILE "04 Rendez-vous.wav" WAVE
INDEX 01 00:00:00
TRACK 05 AUDIO
TITLE "На лiнii вогню"
PERFORMER "Океан Ельзы"
FLAGS DCP
INDEX 00 04:07:58
FILE "05 На лiнii вогню.wav" WAVE
INDEX 01 00:00:00
TRACK 06 AUDIO
TITLE "Дiвчина (з iншого життя)"
PERFORMER "Океан Ельзы"
FLAGS DCP
INDEX 00 03:01:05
FILE "06 Дiвчина (з iншого життя).wav" WAVE
INDEX 01 00:00:00
TRACK 07 AUDIO
TITLE "Ночi i днi"
PERFORMER "Океан Ельзы"
FLAGS DCP
INDEX 00 03:38:07
FILE "07 Ночi i днi.wav" WAVE
INDEX 01 00:00:00
TRACK 08 AUDIO
TITLE "Квiтка"
PERFORMER "Океан Ельзы"
FLAGS DCP
INDEX 00 03:01:03
FILE "08 Квiтка.wav" WAVE
INDEX 01 00:00:00
TRACK 09 AUDIO
TITLE "Холодно"
PERFORMER "Океан Ельзы"
FLAGS DCP
INDEX 00 04:14:61
FILE "09 Холодно.wav" WAVE
INDEX 01 00:00:00
TRACK 10 AUDIO
TITLE "Друг"
PERFORMER "Океан Ельзы"
FLAGS DCP
INDEX 00 04:31:10
FILE "10 Друг.wav" WAVE
INDEX 01 00:00:00
TRACK 11 AUDIO
TITLE "Сьогоднi"
PERFORMER "Океан Ельзы"
FLAGS DCP
INDEX 00 05:26:36
FILE "11 Сьогоднi.wav" WAVE
INDEX 01 00:00:00
TRACK 12 AUDIO
TITLE "Пташка"
PERFORMER "Океан Ельзы"
FLAGS DCP
INDEX 00 03:24:73
FILE "12 Пташка.wav" WAVE
INDEX 01 00:00:00
TRACK 13 AUDIO
TITLE "Голос твiй"
PERFORMER "Океан Ельзы"
FLAGS DCP
INDEX 00 02:42:57
FILE "13 Голос твiй.wav" WAVE
INDEX 01 00:00:00
TRACK 14 AUDIO
TITLE "На небi"
PERFORMER "Океан Ельзы"
FLAGS DCP
INDEX 00 03:53:28
FILE "14 На небi.wav" WAVE
INDEX 01 00:00:00
TRACK 15 AUDIO
TITLE "Не питай"
PERFORMER "Океан Ельзы"
FLAGS DCP
INDEX 00 03:40:73
FILE "15 Не питай.wav" WAVE
INDEX 01 00:00:00
TRACK 16 AUDIO
TITLE "Небо над Днiпром"
PERFORMER "Океан Ельзы"
FLAGS DCP
INDEX 00 02:35:12
FILE "16 Небо над Днiпром.wav" WAVE
INDEX 01 00:00:00
TRACK 17 AUDIO
TITLE "Dolce Vita"
PERFORMER "Океан Ельзы"
FLAGS DCP
INDEX 00 04:15:63
FILE "17 Dolce Vita.wav" WAVE
INDEX 01 00:00:00
TRACK 18 AUDIO
TITLE "Компас"
PERFORMER "Океан Ельзы"
FLAGS DCP
INDEX 00 05:10:09
FILE "18 Компас.wav" WAVE
INDEX 01 00:00:00
TRACK 19 AUDIO
TITLE "Обiйми"
PERFORMER "Океан Ельзы"
FLAGS DCP
INDEX 00 04:25:73
FILE "19 Обiйми.wav" WAVE
INDEX 01 00:00:00


Якщо Ви справді бажаєте підтримати українське - після прослуховування, якщо музика вам сподобалась, придбайте ліцензійний диск. Підтримаймо вітчизняних виконавців!


Срібний реліз (на рейтинг впливає 50% завантаженого)
 Трекер:    Зареєстрований   

Завантажити / скачати українську музику



відео для новачків



 Зареєстрований:   2015-06-14 22:34
 Розмір:   1.03 GB 
 Оцінка музики:   9.3/10 (Голосів: 12)
   
kolpavel 
VIP


З нами з: 04.05.14
Востаннє: 10.12.16
Повідомлень: 1062

2015-06-14 22:42  
Передбачаю багато критики в мою адресу по цьому релiзу. Але менi цей Nikitinський альбом подобається більше ніж "Найкраще". Чому? Бо в ньому бiльше пiсень.

Океан Ельзи - Избранное (2CD) (2013) [MP3] | Rock - http://toloka.to/t66480.

Соломон Кейн 
Забанено
Забанено


З нами з: 14.03.15
Востаннє: 18.11.16
Повідомлень: 485

2015-06-15 11:44  
Не "Избранное", а "Обране"! Альбоми Океану Ельзи вже російською мовою називаєте?
kolpavel 
VIP


З нами з: 04.05.14
Востаннє: 10.12.16
Повідомлень: 1062

2015-06-15 14:22  
Соломон Кейн, смiлива думка, але альбом носить назву "Избранное", а не "Обране". Джон не Iван, а Джон. I вже як на те, то - "Вибране".
Oleksa9 
Поважний учасник


З нами з: 17.05.12
Востаннє: 10.12.16
Повідомлень: 225

2015-06-15 15:19  
Соломон Кейн
Усе правильно названо, оскільки Вакарчук дозволяє собі за тих обставини, які в нас зараз відбуваються, закордоном ворожою мовою співати і закликає до її підтримки .... бо ж її утискають в Україні.

ssTAss 
Модератор музики


З нами з: 05.07.08
Востаннє: 10.12.16
Повідомлень: 10954

2015-06-15 16:58  
Oleksa9 написано:
Вакарчук дозволяє собі за тих обставини, які в нас зараз відбуваються, закордоном ворожою мовою співати

справді? хм, щось не чув
kolpavel написано:
Мова: українська

Соломон Кейн
це просто видавець москальський, тому і назва така для кацапів

Ваш часовий пояс: GMT + 2 Години

Нова тема   Відповісти