Завантажити та скачати торренти українською


Іво Бобул - Тополина любов (2003) [FLAC] | Pop

Нові коментарі

Нова тема   Відповісти
Автор Повідомлення
kolpavel 
VIP


З нами з: 04.05.14
Востаннє: 07.12.16
Повідомлень: 1059

2015-06-10 17:18  
Іво Бобул - Тополина любов (2003) [FLAC] | Pop

Іво Бобул - Тополина любов (2003) [FLAC] | Pop


Стиль: Pop
Країна, місто: Україна, с. Тереблене (Глибоцького району, Чернівецької області)
Видавець: Artur-Musik
Виконавці:
Іван Васильович Бобул
Пісні:
    01 - Тополина Любов.
    02 - Осінь.
    03 - Зачарована.
    04 - Нехай тобі розкаже дощ.
    05 - Вірю.
    06 - Евеліна.
    07 - Ви душу виливаєте мені.
    08 - Горобина.
    09 - Скрипка без струн.
    10 - Жоржини.
    11 - Жовтий лист.
    12 - Збережи любов.

Тривалість: 00:55:49
Мова: українська
Аудіо-кодек: FLAC
Бітрейт: 800-999 кб/с
Джерело: Інтернет
Додаткова інформація:
Лог:
Exact Audio Copy V1.0 beta 3 from 29. August 2011

Отчёт EAC об извлечении, выполненном 22. марта 2013, 18:57

Іво Бобул / Тополина Любов

Дисковод: ATAPI iHAS624 B Adapter: 2 ID: 1

Режим чтения : Достоверность
Использование точного потока : Да
Отключение кэша аудио : Да
Использование указателей C2 : Нет

Коррекция смещения при чтении : 6
Способность читать области Lead-in и Lead-out : Нет
Заполнение пропущенных сэмплов тишиной : Да
Удаление блоков с тишиной в начале и конце : Нет
При вычислениях CRC использовались нулевые сэмплы : Да
Интерфейс : Встроенный Win32-интерфейс для Win NT/2000
Обработка зазоров : Добавлено к предыдущему треку

Выходной формат : Пользовательский кодировщик
Выбранный битрейт : 768 kBit/s
Качество : Высокий
Добавление ID3-тега : Нет
Утилита сжатия : C:\Program Files (x86)\Exact Audio Copy\FLAC\FLAC.EXE
Дополнительные параметры : -V -8 -T "Genre=%genre%" -T "Artist=%artist%" -T "Title=%title%" -T "Album=%albumtitle%" -T "Date=%year%" -T "Composer=%composer%" -T "Tracknumber=%tracknr%" -T "Comment=%comment%" %source%

TOC извлечённого CD

Трек | Старт | Длительность | Начальный сектор | Конечный сектор
---------------------------------------------------------------------
1 | 0:00.00 | 4:19.52 | 0 | 19476
2 | 4:19.52 | 5:30.00 | 19477 | 44226
3 | 9:49.52 | 5:15.28 | 44227 | 67879
4 | 15:05.05 | 4:30.63 | 67880 | 88192
5 | 19:35.68 | 3:46.68 | 88193 | 105210
6 | 23:22.61 | 4:58.28 | 105211 | 127588
7 | 28:21.14 | 4:59.02 | 127589 | 150015
8 | 33:20.16 | 4:46.22 | 150016 | 171487
9 | 38:06.38 | 5:10.12 | 171488 | 194749
10 | 43:16.50 | 4:25.48 | 194750 | 214672
11 | 47:42.23 | 4:11.31 | 214673 | 233528
12 | 51:53.54 | 3:55.41 | 233529 | 251194

Трек 1

Имя файла D:\Іво Бобул - Тополина Любов (2003)\01 - Тополина Любов.wav

Длина предзазора 0:00:02.00

Пиковый уровень 98.0 %
Скорость извлечения 5.5 X
Качество трека 100.0 %
CRC теста 2202FE8C
CRC копии 2202FE8C
Копирование... OK

Трек 2

Имя файла D:\Іво Бобул - Тополина Любов (2003)\02 - Осінь.wav

Пиковый уровень 98.0 %
Скорость извлечения 5.4 X
Качество трека 99.9 %
CRC теста 8F05DC49
CRC копии 8F05DC49
Копирование... OK

Трек 3

Имя файла D:\Іво Бобул - Тополина Любов (2003)\03 - Зачарована.wav

Пиковый уровень 98.0 %
Скорость извлечения 5.8 X
Качество трека 99.9 %
CRC теста D86E1C2C
CRC копии D86E1C2C
Копирование... OK

Трек 4

Имя файла D:\Іво Бобул - Тополина Любов (2003)\04 - Нехай тобі розкаже дощ.wav

Пиковый уровень 98.0 %
Скорость извлечения 7.1 X
Качество трека 100.0 %
CRC теста 666F414F
CRC копии 666F414F
Копирование... OK

Трек 5

Имя файла D:\Іво Бобул - Тополина Любов (2003)\05 - Вірю.wav

Пиковый уровень 98.0 %
Скорость извлечения 7.3 X
Качество трека 100.0 %
CRC теста 03E5923F
CRC копии 03E5923F
Копирование... OK

Трек 6

Имя файла D:\Іво Бобул - Тополина Любов (2003)\06 - Евеліна.wav

Пиковый уровень 98.0 %
Скорость извлечения 7.7 X
Качество трека 100.0 %
CRC теста 86C206D3
CRC копии 86C206D3
Копирование... OK

Трек 7

Имя файла D:\Іво Бобул - Тополина Любов (2003)\07 - Ви душу виливаєте мені.wav

Пиковый уровень 98.0 %
Скорость извлечения 8.4 X
Качество трека 100.0 %
CRC теста E9F9AA62
CRC копии E9F9AA62
Копирование... OK

Трек 8

Имя файла D:\Іво Бобул - Тополина Любов (2003)\08 - Горобина.wav

Пиковый уровень 98.0 %
Скорость извлечения 8.7 X
Качество трека 100.0 %
CRC теста EB42933F
CRC копии EB42933F
Копирование... OK

Трек 9

Имя файла D:\Іво Бобул - Тополина Любов (2003)\09 - Скрипка без струн.wav

Пиковый уровень 98.0 %
Скорость извлечения 9.1 X
Качество трека 100.0 %
CRC теста AA1FC83D
CRC копии AA1FC83D
Копирование... OK

Трек 10

Имя файла D:\Іво Бобул - Тополина Любов (2003)\10 - Жоржини.wav

Пиковый уровень 98.0 %
Скорость извлечения 9.4 X
Качество трека 100.0 %
CRC теста 98D404B8
CRC копии 98D404B8
Копирование... OK

Трек 11

Имя файла D:\Іво Бобул - Тополина Любов (2003)\11 - Жовтий лист.wav

Пиковый уровень 98.0 %
Скорость извлечения 9.3 X
Качество трека 100.0 %
CRC теста B4D2E842
CRC копии B4D2E842
Копирование... OK

Трек 12

Имя файла D:\Іво Бобул - Тополина Любов (2003)\12 - Збережи любов.wav

Пиковый уровень 98.0 %
Скорость извлечения 9.7 X
Качество трека 100.0 %
CRC теста 8C331678
CRC копии 8C331678
Копирование... OK

Ошибок не произошло

Конец отчёта

==== Контрольная сумма отчёта 223858519AC72783A3967A7926A83C0EB74B07622ADD34E9512F974F924D8EB1 ====
(.CUE):
REM DATE 2003
REM DISCID 9C0D150C
REM COMMENT "ExactAudioCopy v1.0b3"
PERFORMER "Іво Бобул"
TITLE "Тополина Любов"
FILE "01 - Тополина Любов.wav" WAVE
TRACK 01 AUDIO
TITLE "Тополина Любов"
PERFORMER "Іво Бобул"
INDEX 01 00:00:00
FILE "02 - Осінь.wav" WAVE
TRACK 02 AUDIO
TITLE "Осінь"
PERFORMER "Іво Бобул"
INDEX 01 00:00:00
FILE "03 - Зачарована.wav" WAVE
TRACK 03 AUDIO
TITLE "Зачарована"
PERFORMER "Іво Бобул"
INDEX 01 00:00:00
FILE "04 - Нехай тобі розкаже дощ.wav" WAVE
TRACK 04 AUDIO
TITLE "Нехай тобі розкаже дощ"
PERFORMER "Іво Бобул"
INDEX 01 00:00:00
FILE "05 - Вірю.wav" WAVE
TRACK 05 AUDIO
TITLE "Вірю"
PERFORMER "Іво Бобул"
INDEX 01 00:00:00
FILE "06 - Евеліна.wav" WAVE
TRACK 06 AUDIO
TITLE "Евеліна"
PERFORMER "Іво Бобул"
INDEX 01 00:00:00
FILE "07 - Ви душу виливаєте мені.wav" WAVE
TRACK 07 AUDIO
TITLE "Ви душу виливаєте мені"
PERFORMER "Іво Бобул"
INDEX 01 00:00:00
FILE "08 - Горобина.wav" WAVE
TRACK 08 AUDIO
TITLE "Горобина"
PERFORMER "Іво Бобул"
INDEX 01 00:00:00
FILE "09 - Скрипка без струн.wav" WAVE
TRACK 09 AUDIO
TITLE "Скрипка без струн"
PERFORMER "Іво Бобул"
INDEX 01 00:00:00
FILE "10 - Жоржини.wav" WAVE
TRACK 10 AUDIO
TITLE "Жоржини"
PERFORMER "Іво Бобул"
INDEX 01 00:00:00
FILE "11 - Жовтий лист.wav" WAVE
TRACK 11 AUDIO
TITLE "Жовтий лист"
PERFORMER "Іво Бобул"
INDEX 01 00:00:00
FILE "12 - Збережи любов.wav" WAVE
TRACK 12 AUDIO
TITLE "Збережи любов"
PERFORMER "Іво Бобул"
INDEX 01 00:00:00
Лог перевiрки якостi:
AUDIOCHECKER v2.0 beta (build 457) - by Dester - [email protected]
~~~~~~~~~~~~~~~~~~~~~~~~~~~~~~~~~~
-=== НЕ РЕДАКТИРУЙТЕ ЭТОТ ФАЙЛ! ===-

Путь: ...\Іво Бобул - Тополина Любов (2003)

01 -=- 01 - Тополина Любов.flac -=- CDDA (100%)
02 -=- 02 - Осінь.flac -=- MPEG (95%)
03 -=- 03 - Зачарована.flac -=- CDDA (100%)
04 -=- 04 - Нехай тобі розкаже дощ.flac -=- CDDA (100%)
05 -=- 05 - Вірю.flac -=- CDDA (100%)
06 -=- 06 - Евеліна.flac -=- MPEG (95%)
07 -=- 07 - Ви душу виливаєте мені.flac -=- MPEG (95%)
08 -=- 08 - Горобина.flac -=- CDDA (100%)
09 -=- 09 - Скрипка без струн.flac -=- CDDA (100%)
10 -=- 10 - Жоржини.flac -=- MPEG (95%)
11 -=- 11 - Жовтий лист.flac -=- MPEG (95%)
12 -=- 12 - Збережи любов.flac -=- MPEG (95%)

Сводка 52,50% CDDA

68243556


Якщо Ви справді бажаєте підтримати українське - після прослуховування, якщо музика вам сподобалась, придбайте ліцензійний диск. Підтримаймо вітчизняних виконавців!


Срібний реліз (на рейтинг впливає 50% завантаженого)
 Трекер:    Зареєстрований   

Завантажити / скачати українську музику



відео для новачків



 Зареєстрований:   2015-06-10 17:18
 Розмір:   369 MB 
 Оцінка музики:   9.9/10 (Голосів: 8)
   
ssTAss 
Модератор музики


З нами з: 05.07.08
Востаннє: 07.12.16
Повідомлень: 10947

2015-06-10 21:46  
kolpavel написано:

01 - Тополина Любов. (989 кб/с)
02 - Осінь. (800 кб/с)
03 - Зачарована. (862 кб/с)


в луслесі не обов'язково писати бітрейт потреково як в мр3
достатньо вказати межі
kolpavel написано:
Бітрейт: 800-999 кб/с

Ваш часовий пояс: GMT + 2 Години

Нова тема   Відповісти