Завантажити та скачати торренти українською


Лихоманка на білій смузі / White line fever (1975) AVC Eng | sub Ukr

Нові коментарі

Нова тема   Відповісти
Останній раз роздавалося andrew_crasher (2016-11-27)
Автор Повідомлення
andrew_crasher 
Свій


З нами з: 31.01.12
Востаннє: 11.11.16
Повідомлень: 55

2015-06-10 08:31  
Лихоманка на білій смузі / White line fever (1975) AVC Eng | sub Ukr

Лихоманка на білій смузі / White line fever (1975) AVC Eng | sub Ukr


Жанр: Бойовик, драма
Країна: США



Кінокомпанія: Columbia pictures
Режисер: Джонатан Кеплен
У головних ролях: Ян-Майкл Вінсент/Jan-Michael Vincent, Кей Ленц/Kay Lenz, Слім Пікенс/Slim Pickens, Л.К. Джонс/L.Q. Jones
Сюжет:
Відслуживши в армії, Керол Джо Хамер повертається додому і одружується на симпатичній Джеррі Кейн. Взявши у кредит потужний тягач, він наймається в транспортну контору, у якій працював до служби. Тепер, маючи власну вантажівку, Хамер сподівається чесною працею поповнити сімейний бюджет. Однак часи змінилися і бізнесом заправляють зовсім інші люди, що наживаються на контрабанді товарів. Відмова Хамера брати участь у махінаціях порушує налагоджену схему перевезень, до того ж принциповий водій "погано" впливає на інших далекобійників. Шляхом обману, шантажу і насильства його намагаються змусити порушити закон, але у Хамера є рушниця і бажання навести порядок на "білій смузі".


Тривалість: 01:29:23
Якість:
Відео:
кодек:
розмір кадру: 720 х 340
бітрейт: 1918 кб/с
частота кадрів/сек: 23.976
контейнер: *.mkv

Аудіо:
мова: англійська
переклад: оригінал
кодек: 2.0
бітрейт: 224 кб/с

Субтитри:
мова: українська
тип: програмні (м'які)
формат: *.srt
переклад: andrew_crasher
Скріншоти






MediaInfo

General
Unique ID : 177374752406362193487945904856901800348 (0x8571227BF2384C7EA1001CCA8ACED19C)
Format : Matroska
Format version : Version 4 / Version 2
File size : 1.34 GiB
Duration : 1h 29mn
Overall bit rate : 2 144 Kbps
Encoded date : UTC 2015-06-10 05:24:17
Writing application : mkvmerge v7.5.0 ('Glass Culture') 64bit built on Jan 4 2015 16:48:44
Writing library : libebml v1.3.1 + libmatroska v1.4.2
DURATION : 01:26:51.721000000
NUMBER_OF_FRAMES : 772
NUMBER_OF_BYTES : 44631
_STATISTICS_WRITING_APP : mkvmerge v7.5.0 ('Glass Culture') 64bit built on Jan 4 2015 16:48:44
_STATISTICS_WRITING_DATE_UTC : 2015-06-10 05:24:17
_STATISTICS_TAGS : BPS DURATION NUMBER_OF_FRAMES NUMBER_OF_BYTES

Video
ID : 1
Format : AVC
Format/Info : Advanced Video Codec
Format profile : [email protected]
Format settings, CABAC : Yes
Format settings, ReFrames : 16 frames
Codec ID : V_MPEG4/ISO/AVC
Duration : 1h 29mn
Bit rate : 1 918 Kbps
Width : 720 pixels
Height : 340 pixels
Display aspect ratio : 1.880
Original display aspect ratio : 1.882
Frame rate mode : Constant
Frame rate : 23.976 fps
Color space : YUV
Chroma subsampling : 4:2:0
Bit depth : 8 bits
Scan type : Progressive
Bits/(Pixel*Frame) : 0.327
Stream size : 1.17 GiB (88%)
Title : White Line Fever (1975)
Writing library : core 133 r2334 a3ac64b
Encoding settings : cabac=1 / ref=16 / deblock=1:-2:-1 / analyse=0x3:0x133 / me=umh / subme=10 / psy=1 / psy_rd=1.00:0.10 / mixed_ref=1 / me_range=32 / chroma_me=1 / trellis=2 / 8x8dct=1 / cqm=0 / deadzone=21,11 / fast_pskip=0 / chroma_qp_offset=-3 / threads=3 / lookahead_threads=1 / sliced_threads=0 / nr=0 / decimate=1 / interlaced=0 / bluray_compat=0 / constrained_intra=0 / bframes=10 / b_pyramid=2 / b_adapt=2 / b_bias=0 / direct=3 / weightb=1 / open_gop=0 / weightp=2 / keyint=240 / keyint_min=23 / scenecut=40 / intra_refresh=0 / rc_lookahead=60 / rc=2pass / mbtree=1 / bitrate=1918 / ratetol=1.0 / qcomp=0.60 / qpmin=10 / qpmax=51 / qpstep=4 / cplxblur=20.0 / qblur=0.5 / vbv_maxrate=50000 / vbv_bufsize=50000 / nal_hrd=none / ip_ratio=1.40 / aq=1:1.00
Language : English
Default : No
Forced : No

Audio
ID : 2
Format : AC-3
Format/Info : Audio Coding 3
Mode extension : CM (complete main)
Format settings, Endianness : Big
Codec ID : A_AC3
Duration : 1h 29mn
Bit rate mode : Constant
Bit rate : 224 Kbps
Channel(s) : 2 channels
Channel positions : Front: L R
Sampling rate : 48.0 KHz
Compression mode : Lossy
Stream size : 143 MiB (10%)
Title : English
Language : English
Default : No
Forced : No

Text
ID : 3
Format : UTF-8
Codec ID : S_TEXT/UTF8
Codec ID/Info : UTF-8 Plain Text
Title : Українська
Language : Ukrainian
Default : Yes
Forced : No
Особисті враження

Гадаю фільм сподобається любителям "Конвою" (1978), адже головний герой так само бореться проти системи. У цій стрічці доволі точно показуються реалії тогочасних США, коли 16-годинний робочий день був нормою і знайти хорошу роботу було не так легко. Життя американців не було таким райським, як багатьом здавалося на той час, їм треба було важко працювати, щоб прогодувати сім'ю. Фільм не мав такої популярності, як той же "Конвой", хоча вони обидва мають однакові рейтинги. Тут більше драми і показується типове життя далекобійника. Особисто я ніколи не бачив стрічку по телебаченню і був дуже радий, що випадково подивився її. Тому вирішив зробити реліз. Рекомендую до перегляду.
Джерело:
Особиста оцінка: 9 - мені сподобалося


Золотий реліз (завантажене не впливає на рейтинг)
 Трекер:    Зареєстрований   

Завантажити / скачати фільм українською



відео для новачків



 Зареєстрований:   2015-06-10 08:31
 Розмір:   1.34 GB 
 Оцінка фільму:   10/10 (Голосів: 5)
   
Ваш часовий пояс: GMT + 2 Години

Нова тема   Відповісти