Завантажити та скачати торренти українською


Гра на виживання / Beyond the Reach (2014) 720p Ukr/Eng

Нові коментарі

Нова тема   Відповісти
Автор Повідомлення
Anonymous 







2015-06-07 20:59  
Гра на виживання / Beyond the Reach (2014) 720p Ukr/Eng



Жанр: трилер
Країна: США



Кінокомпанія: Furthur Films
Режисер: Жан-Батист Леонетті
Актори: Майкл Даґлес, Джеремі Ірвін, Ганна Менґен Лоуренс, Ронні Кокс, Патрісія Бетун, Мартін Палмер, Девід Ґарвер

Сюжет:
Пустеля Мохаве на південному заході США. Температура перевищує 55 градусів. Без води людина проживе не більше 60 хвилин. Саме в таких екстремальних умовах полює відомий мільйонер Медек з молодим провідником Беном. В результаті нещасного випадку Медек застрелив незнайомця, який опинився не в той час і не в тому місці. Коли Бен в паніці намагається зв'язатися з владою, починається смертельна гра, мета якої змусити пустелю вбити суперника. Хто переможе в цій сутичці, і де межа людських можливостей?


Тривалість: 01:31:41
Відео:
кодек:
розмір кадру: 1280 х 536
бітрейт: 5312 кб/с

Аудіо # 1:
мова: українська
переклад: професійний дубльований
кодек: 2.0
бітрейт: 192 кб/с

Аудіо # 2:
мова: англійська
переклад: оригінал
кодек: 5.1
бітрейт: 1509 кб/с
MediaInfo
General
Unique ID : 236778923483046488030812906008076233932 (0xB221F63EA850DCF4868690487BE22CCC)
Complete name : E:\Beyond the Reach (2014) 720p [Ukr.Eng] [Hurtom].mkv
Format : Matroska
Format version : Version 4 / Version 2
File size : 4.49 GiB
Duration : 1h 31mn
Overall bit rate : 7 014 Kbps
Encoded date : UTC 2015-06-07 18:47:52
Writing application : mkvmerge v7.9.0 ('Birds') 64bit
Writing library : libebml v1.3.1 + libmatroska v1.4.2
DURATION : 01:31:40.192000000
NUMBER_OF_FRAMES : 171881
NUMBER_OF_BYTES : 132004608
_STATISTICS_WRITING_APP : mkvmerge v7.9.0 ('Birds') 64bit
_STATISTICS_WRITING_DATE_UT : 2015-06-07 18:47:52
_STATISTICS_TAGS : BPS DURATION NUMBER_OF_FRAMES NUMBER_OF_BYTES

Video
ID : 1
Format : AVC
Format/Info : Advanced Video Codec
Format profile : [email protected]
Format settings, CABAC : Yes
Format settings, ReFrames : 5 frames
Codec ID : V_MPEG4/ISO/AVC
Duration : 1h 31mn
Bit rate : 5 312 Kbps
Width : 1 280 pixels
Height : 536 pixels
Display aspect ratio : 2.40:1
Frame rate mode : Constant
Frame rate : 23.976 fps
Color space : YUV
Chroma subsampling : 4:2:0
Bit depth : 8 bits
Scan type : Progressive
Bits/(Pixel*Frame) : 0.323
Stream size : 3.31 GiB (74%)
Writing library : core 144 r2525 40bb568
Encoding settings : cabac=1 / ref=5 / deblock=1:0:0 / analyse=0x3:0x133 / me=umh / subme=7 / psy=1 / psy_rd=1.00:0.00 / mixed_ref=1 / me_range=16 / chroma_me=1 / trellis=1 / 8x8dct=1 / cqm=0 / deadzone=21,11 / fast_pskip=0 / chroma_qp_offset=-2 / threads=18 / lookahead_threads=3 / sliced_threads=0 / nr=0 / decimate=1 / interlaced=0 / bluray_compat=0 / constrained_intra=0 / bframes=3 / b_pyramid=2 / b_adapt=1 / b_bias=0 / direct=1 / weightb=1 / open_gop=0 / weightp=2 / keyint=250 / keyint_min=23 / scenecut=40 / intra_refresh=0 / rc_lookahead=40 / rc=2pass / mbtree=1 / bitrate=5312 / ratetol=1.0 / qcomp=0.60 / qpmin=0 / qpmax=69 / qpstep=4 / cplxblur=20.0 / qblur=0.5 / ip_ratio=1.40 / aq=1:1.00
Language : English
Default : Yes
Forced : No
DURATION : 01:31:40.129000000
NUMBER_OF_FRAMES : 131871
NUMBER_OF_BYTES : 3650936822
_STATISTICS_WRITING_APP : mkvmerge v7.9.0 ('Birds') 64bit
_STATISTICS_WRITING_DATE_UT : 2015-06-07 18:47:52
_STATISTICS_TAGS : BPS DURATION NUMBER_OF_FRAMES NUMBER_OF_BYTES

Audio #1
ID : 2
Format : AC-3
Format/Info : Audio Coding 3
Mode extension : CM (complete main)
Format settings, Endianness : Big
Codec ID : A_AC3
Duration : 1h 31mn
Bit rate mode : Constant
Bit rate : 192 Kbps
Channel(s) : 2 channels
Channel positions : Front: L R
Sampling rate : 48.0 KHz
Compression mode : Lossy
Stream size : 126 MiB (3%)
Language : Ukrainian
Default : Yes
Forced : No

Audio #2
ID : 3
Format :
Format/Info : Digital Theater Systems
Mode : 16
Format settings, Endianness : Big
Codec ID : A_DTS
Duration : 1h 31mn
Bit rate mode : Constant
Bit rate : 1 509 Kbps
Channel(s) : 6 channels
Channel positions : Front: L C R, Side: L R, LFE
Sampling rate : 48.0 KHz
Bit depth : 24 bits
Compression mode : Lossy
Stream size : 989 MiB (22%)
Language : English
Default : No
Forced : No

Menu
00:00:00.000 : en:00:00:00.000
00:05:49.349 : en:00:05:49.349
00:11:20.805 : en:00:11:20.805
00:17:36.347 : en:00:17:36.347
00:22:40.943 : en:00:22:40.943
00:30:22.738 : en:00:30:22.738
00:36:41.449 : en:00:36:41.449
00:39:29.701 : en:00:39:29.701
00:45:30.937 : en:00:45:30.937
00:50:46.043 : en:00:50:46.043
00:56:55.120 : en:00:56:55.120
01:02:50.684 : en:01:02:50.684
01:09:03.973 : en:01:09:03.973
01:15:18.347 : en:01:15:18.347
01:20:13.934 : en:01:20:13.934
01:26:28.183 : en:01:26:28.183


 Трекер:    Зареєстрований   

Завантажити / скачати фільм українською



відео для новачків



 Зареєстрований:   2015-06-07 20:59
 Розмір:   4.49 GB 
 Оцінка фільму:   7/10 (Голосів: 13)
   
Інші релізи
   Гра на виживання / Beyond the Reach (2014) AngryBirdsUA  8 / 0   1.45 GB   2015-06-07 20:59 
   Гра на виживання / Beyond the Reach (2014) AVC Gelios  5 / 0   1.73 GB   2015-06-06 20:14 
Siegfried 
Свій


З нами з: 01.11.11
Востаннє: 04.12.16
Повідомлень: 84

2015-06-08 12:06  
Досить непоганий фільм. В основному завдяки грі Майкла, а от його здобич зі своїми амурними переживаннями швидше дратувала. Фабула стрічки цікава, але не вистачало динаміки і несподіванок. Кінець слабший і менш логічний ніж решта картини. Досить гарні пейзажні зйомки, плюс просто чудові Mercedes і Steyr.

Можна сміло дивитися. На 6.5 з 10.

waldi-hurtom 
VIP


З нами з: 07.10.12
Востаннє: 03.12.16
Повідомлень: 611

2015-06-11 10:42  
Остання сцена все псує. Краще було закінчити моментом, як хлоп прокидається після нічного жаху. Таке враження, що спонсор нав'язав свою кінцівку режисеру. Дивитись, безумовно, варто. 7 з 10.
Ваш часовий пояс: GMT + 2 Години

Нова тема   Відповісти