Завантажити та скачати торренти українською


VA - Українські народні жартівливі пісні (2004) [FLAC] | Folk

Нові коментарі

Нова тема   Відповісти
Автор Повідомлення
kolpavel 
VIP


З нами з: 04.05.14
Востаннє: 08.12.16
Повідомлень: 1059

2015-06-07 16:48  
VA - Українські народні жартівливі пісні (2004) [FLAC] | Folk

VA - Українські народні жартівливі пісні (2004) [FLAC] | Folk


Стиль: Folk
Країна, місто: Україна
Видавець: Taras Bulba Entertaiment
Пісні:
    01. Марія Стеф’юк - Ти до мене не ходи.
    02. Марія Стеф’юк - І шумить, і гудє.
    03. Черкаський український народний хор - Вийди, Грицю, на вулицю.
    04. В. Єсипок - Ой під вишнею.
    05. В. Єсипок - Як посіяв мужик та й у полі ячмінь.
    06. Марія Миколайчук - На тарелі дрібний сир.
    07. Ансамбль "Чумацький шлях" - Був собі журавель.
    08. Алла Кудлай - Ой червоний бурячок.
    09. Діана та Василь Матющенки - І вчора в куми.
    10. Вокальний ансамбль хору ім. Г. Верьовки - А хто бачив, а хто чув.
    11. Т. Дук - Била мене мати.
    12. Т. Дук - Ой устану я в понеділок.
    13. Я. Гнатюк - Казав мені батько.
    14. Тріо бандуристок НРКУ А. Шутько, С. Петрова, А. Марченко - Ой продала дівчина курку.
    15. Тріо бандуристок НРКУ А. Шутько, С. Петрова, А. Марченко - Задумав дідочок, задумав жениться.
    16. Ю. Фесенко, ансамбль "Коробейники" - Із сиром пироги.
    17. Ансамбль "Веселі музики" - Ой, я, молода, на базар ходила.
    18. М. Раков, О. Таранець - Дівка в сінях стояла.
    19. Ансамбль "Веселі музики" - Коли б мені зранку.
    20. В. Зарков - Журавель.
    21. В. Синельник - Кину кужіль.
    22. В. Синельник - Господарочка.
    23. Костянтин Огнєвий - Гандзя
    24. Тріо бандуристок С. Мирвода, Т. Маломуж, Л. Гопкало - Гарбуз білий качається.
    25. Капела бандуристів Богуславського районного будинку культури - Дівчино, рибчино.
    26. Ансамбль "Перлина" - Ішов козак потайком.
    27. Раїса Кириченко - Грицю, Грицю, до роботи.
    28. С. Олексієнко М. Партика, ансамбль "Верховина" - Добрий вечор, сусідонько.
    29. В. Грицюк - З того часу, як женився.
    30. Тріо "Либідь" - А хто бачив, а хто чув.
    31. Дует "Два кольори" - Підманула, підвела.

Тривалість: 01:05:29
Мова: українська
Аудіо-кодек: FLAC
Бітрейт: 749 кб/с
Джерело: ріп зроблено з ліцензійного компакт-диска із власної фонотеки
Додаткова інформація:
EAC:
Exact Audio Copy V1.1 from 23. June 2015

Отчёт EAC об извлечении, выполненном 2. августа 2016, 22:20

- / Українські народні жартівливі пісні

Дисковод: ATAPI iHAS122 Adapter: 1 ID: 0

Режим чтения : Скоростной

Коррекция смещения при чтении : 6
Способность читать области Lead-in и Lead-out : Нет
Заполнение пропущенных сэмплов тишиной : Да
Удаление блоков с тишиной в начале и конце : Нет
При вычислениях CRC использовались нулевые сэмплы : Да
Нормализовать до : 98 %
Интерфейс : Встроенный Win32-интерфейс для Win NT/2000

Выходной формат : Пользовательский кодировщик
Выбранный битрейт : 1024 kBit/s
Качество : Высокий
Добавление ID3-тега : Нет
Утилита сжатия : F:\Programs\Exact Audio Copy\Flac\flac.exe
Дополнительные параметры : -V -8 -T "Date=%year%" -T "Genre=%genre%" %source%

TOC извлечённого CD

Трек | Старт | Длительность | Начальный сектор | Конечный сектор
---------------------------------------------------------------------
1 | 0:00.00 | 1:24.09 | 0 | 6308
2 | 1:24.09 | 1:45.67 | 6309 | 14250
3 | 3:10.01 | 1:25.22 | 14251 | 20647
4 | 4:35.23 | 2:00.16 | 20648 | 29663
5 | 6:35.39 | 4:09.33 | 29664 | 48371
6 | 10:44.72 | 1:16.25 | 48372 | 54096
7 | 12:01.22 | 1:42.18 | 54097 | 61764
8 | 13:43.40 | 1:26.53 | 61765 | 68267
9 | 15:10.18 | 2:02.40 | 68268 | 77457
10 | 17:12.58 | 1:22.55 | 77458 | 83662
11 | 18:35.38 | 1:52.39 | 83663 | 92101
12 | 20:28.02 | 3:49.02 | 92102 | 109278
13 | 24:17.04 | 1:41.71 | 109279 | 116924
14 | 25:59.00 | 1:50.49 | 116925 | 125223
15 | 27:49.49 | 2:19.74 | 125224 | 135722
16 | 30:09.48 | 3:46.60 | 135723 | 152732
17 | 33:56.33 | 1:48.43 | 152733 | 160875
18 | 35:45.01 | 1:13.43 | 160876 | 166393
19 | 36:58.44 | 2:49.09 | 166394 | 179077
20 | 39:47.53 | 2:17.30 | 179078 | 189382
21 | 42:05.08 | 1:47.18 | 189383 | 197425
22 | 43:52.26 | 3:15.10 | 197426 | 212060
23 | 47:07.36 | 2:44.27 | 212061 | 224387
24 | 49:51.63 | 1:38.32 | 224388 | 231769
25 | 51:30.20 | 1:49.13 | 231770 | 239957
26 | 53:19.33 | 2:12.15 | 239958 | 249872
27 | 55:31.48 | 1:26.37 | 249873 | 256359
28 | 56:58.10 | 2:27.60 | 256360 | 267444
29 | 59:25.70 | 1:37.42 | 267445 | 274761
30 | 61:03.37 | 1:03.10 | 274762 | 279496
31 | 62:06.47 | 3:23.09 | 279497 | 294730

Характеристики диапазона извлечения и сообщения об ошибках

Выбранный диапазон

Имя файла F:\Rip test\Українські народні жартівливі пісні (2004) FLAC\Українські народні жартівливі пісні.wav

Пиковый уровень 100.0 %
Скорость извлечения 26.2 X
CRC теста 5E70D6F4
CRC копии 5E70D6F4
Копирование... OK

Ошибок не произошло

AccurateRip: сводка

Трек 1 отсутствует в базе данных
Трек 2 отсутствует в базе данных
Трек 3 отсутствует в базе данных
Трек 4 отсутствует в базе данных
Трек 5 отсутствует в базе данных
Трек 6 отсутствует в базе данных
Трек 7 отсутствует в базе данных
Трек 8 отсутствует в базе данных
Трек 9 отсутствует в базе данных
Трек 10 отсутствует в базе данных
Трек 11 отсутствует в базе данных
Трек 12 отсутствует в базе данных
Трек 13 отсутствует в базе данных
Трек 14 отсутствует в базе данных
Трек 15 отсутствует в базе данных
Трек 16 отсутствует в базе данных
Трек 17 отсутствует в базе данных
Трек 18 отсутствует в базе данных
Трек 19 отсутствует в базе данных
Трек 20 отсутствует в базе данных
Трек 21 отсутствует в базе данных
Трек 22 отсутствует в базе данных
Трек 23 отсутствует в базе данных
Трек 24 отсутствует в базе данных
Трек 25 отсутствует в базе данных
Трек 26 отсутствует в базе данных
Трек 27 отсутствует в базе данных
Трек 28 отсутствует в базе данных
Трек 29 отсутствует в базе данных
Трек 30 отсутствует в базе данных
Трек 31 отсутствует в базе данных

Ни одного трека нет в базе AccurateRip

Конец отчёта

==== Контрольная сумма отчёта E24E45821F89CF8BA02F1C571D91A415F228F08EBDDFFDD7F179D4FDB2AF5558 ====
свiтлини
VA - Українські народні жартівливі пісні (2004) [FLAC] | FolkVA - Українські народні жартівливі пісні (2004) [FLAC] | Folk
Якщо Ви справді бажаєте підтримати українське - після прослуховування, якщо музика вам сподобалась, придбайте ліцензійний диск. Підтримаймо вітчизняних виконавців!


Срібний реліз (на рейтинг впливає 50% завантаженого)
 Трекер:    Зареєстрований   

Завантажити / скачати українську музику



відео для новачків



 Зареєстрований:   2016-08-02 21:34
 Розмір:   351 MB 
 Оцінка музики:   10/10 (Голосів: 3)
   
kolpavel 
VIP


З нами з: 04.05.14
Востаннє: 08.12.16
Повідомлень: 1059

2015-06-07 16:51  
VA - Українські народні жартівливі пісні (2004) [MP3] | Folk - http://toloka.to/t75128
ssTAss 
Модератор музики


З нами з: 05.07.08
Востаннє: 08.12.16
Повідомлень: 10947

2015-06-08 21:14  
kolpavel написано:

2 Unknown Artist - Unknown Title.cue 4 KB
3 Unknown Artist - Unknown Title.flac 354 MB
4 Unknown Artist - Unknown Title.log 27 KB


назви не прописані, куе, підозрюю, теж
якщо хтось викладе з нормальними, то Ваш реліз піде в смітник

kolpavel 
VIP


З нами з: 04.05.14
Востаннє: 08.12.16
Повідомлень: 1059

2015-06-09 00:33  
Шановнi, переробив, прошу перекачати.
mr.killer 
Свій


З нами з: 11.08.10
Востаннє: 08.12.16
Повідомлень: 146

2016-08-14 20:16  
чому до сих пір не перевірено?
Ваш часовий пояс: GMT + 2 Години

Нова тема   Відповісти