Завантажити та скачати торренти українською


Гурт "Вишня" - Пісні вишневого саду (2007) [FLAC] | Folk/Pop

Нові коментарі

Нова тема   Відповісти
Автор Повідомлення
kolpavel 
VIP


З нами з: 04.05.14
Востаннє: 06.12.16
Повідомлень: 1059

2015-06-07 15:35  
Гурт "Вишня" - Пісні вишневого саду (2007) [FLAC] | Folk/Pop

Гурт "Вишня" - Пісні вишневого саду (2007) [FLAC] | Folk/Pop


Стиль: Folk Pop
Країна, місто: Україна, Вiнниця.
Сайти: Офіційний сайт
Видавець: МПП фiрма МЕД
Пісні:
    1. Вийди, Грицю,на вулицю.
    2. Ой, пряла б куделицю.
    3. Ой, я знаю, що гріх маю.
    4. Мені ворожка ворожила.
    5. Летять коні на Вкраїну.
    6. Мелодії села.
    7. Та калина - малина.
    8. Ой, сама я, сама.
    9. Ти березо кучерява.
    10. Зоре моя вечірняя.
    11. Марина.
    12. Ніч яка місячна.
    13. Ой, на горі, на високій.
    14. Туман яром.
    15. Карі очі, чорні брови.
    16. У перетику ходила.
    17. Ой ти, ніченько.
    18. Дунаю, Дунаю.
    19. За городом кози пасла.

Тривалість: 00:47:04
Мова: українська
Аудіо-кодек: FLAC
Бітрейт: 942 кб/с
Джерело: ріп зроблено з ліцензійного компакт-диска із власної фонотеки
Додаткова інформація:
EAC:
Exact Audio Copy V1.0 beta 6 from 9. April 2015

Отчёт EAC об извлечении, выполненном 7. июня 2015, 15:46

- / Пiснi вишневого саду

Дисковод: Optiarc DVD RW AD-7561S Adapter: 1 ID: 0

Режим чтения : Достоверность
Использование точного потока : Да
Отключение кэша аудио : Нет
Использование указателей C2 : Да

Коррекция смещения при чтении : 6
Способность читать области Lead-in и Lead-out : Нет
Заполнение пропущенных сэмплов тишиной : Да
Удаление блоков с тишиной в начале и конце : Нет
При вычислениях CRC использовались нулевые сэмплы : Да
Интерфейс : Встроенный Win32-интерфейс для Win NT/2000

Выходной формат : Пользовательский кодировщик
Выбранный битрейт : 1024 kBit/s
Качество : Высокий
Добавление ID3-тега : Нет
Утилита сжатия : C:\Program Files\Exact Audio Copy\Flac\flac.exe
Дополнительные параметры : -6 -V -T "ARTIST=%artist%" -T "TITLE=%title%" -T "ALBUM=%albumtitle%" -T "DATE=%year%" -T "TRACKNUMBER=%tracknr%" -T "GENRE=%genre%" -T "COMMENT=%comment%" -T "BAND=%albuminterpret%" -T "ALBUMARTIST=%albuminterpret%" -T "COMPOSER=%composer%" %haslyrics%--tag-from-file=LYRICS="%lyricsfile%"%haslyrics% -T "DISCNUMBER=%cdnumber%" -T "TOTALDISCS=%totalcds%" -T "TOTALTRACKS=%numtracks%" %hascover%--picture="%coverfile%"%hascover% %source% -o %dest%

TOC извлечённого CD

Трек | Старт | Длительность | Начальный сектор | Конечный сектор
---------------------------------------------------------------------
1 | 0:00.00 | 2:07.58 | 0 | 9582
2 | 2:07.58 | 2:29.09 | 9583 | 20766
3 | 4:36.67 | 2:19.27 | 20767 | 31218
4 | 6:56.19 | 2:53.04 | 31219 | 44197
5 | 9:49.23 | 2:51.32 | 44198 | 57054
6 | 12:40.55 | 2:00.29 | 57055 | 66083
7 | 14:41.09 | 1:55.40 | 66084 | 74748
8 | 16:36.49 | 2:11.21 | 74749 | 84594
9 | 18:47.70 | 2:07.04 | 84595 | 94123
10 | 20:54.74 | 3:33.53 | 94124 | 110151
11 | 24:28.52 | 2:33.43 | 110152 | 121669
12 | 27:02.20 | 2:52.04 | 121670 | 134573
13 | 29:54.24 | 1:58.16 | 134574 | 143439
14 | 31:52.40 | 1:48.66 | 143440 | 151605
15 | 33:41.31 | 2:59.12 | 151606 | 165042
16 | 36:40.43 | 1:59.43 | 165043 | 174010
17 | 38:40.11 | 2:48.62 | 174011 | 186672
18 | 41:28.73 | 3:10.51 | 186673 | 200973
19 | 44:39.49 | 2:24.68 | 200974 | 211841

Характеристики диапазона извлечения и сообщения об ошибках

Выбранный диапазон

Имя файла C:\Users\User\Documents\Пiснi вишневого саду.wav

Пиковый уровень 100.0 %
Скорость извлечения 5.0 X
Качество диапазона 100.0 %
CRC теста C200B838
CRC копии C200B838
Копирование... OK

Ошибок не произошло

AccurateRip: сводка

Трек 1 отсутствует в базе данных
Трек 2 отсутствует в базе данных
Трек 3 отсутствует в базе данных
Трек 4 отсутствует в базе данных
Трек 5 отсутствует в базе данных
Трек 6 отсутствует в базе данных
Трек 7 отсутствует в базе данных
Трек 8 отсутствует в базе данных
Трек 9 отсутствует в базе данных
Трек 10 отсутствует в базе данных
Трек 11 отсутствует в базе данных
Трек 12 отсутствует в базе данных
Трек 13 отсутствует в базе данных
Трек 14 отсутствует в базе данных
Трек 15 отсутствует в базе данных
Трек 16 отсутствует в базе данных
Трек 17 отсутствует в базе данных
Трек 18 отсутствует в базе данных
Трек 19 отсутствует в базе данных

Ни одного трека нет в базе AccurateRip

Конец отчёта

---- CUETools DB Plugin V2.1.6

[CTDB TOCID: 5m6WLCoIBOk_GaHuxAlfoDJzE1k-] found
Submit result: already submitted
Track | CTDB Status
1 | (1/1) Accurately ripped
2 | (1/1) Accurately ripped
3 | (1/1) Accurately ripped
4 | (1/1) Accurately ripped
5 | (1/1) Accurately ripped
6 | (1/1) Accurately ripped
7 | (1/1) Accurately ripped
8 | (1/1) Accurately ripped
9 | (1/1) Accurately ripped
10 | (1/1) Accurately ripped
11 | (1/1) Accurately ripped
12 | (1/1) Accurately ripped
13 | (1/1) Accurately ripped
14 | (1/1) Accurately ripped
15 | (1/1) Accurately ripped
16 | (1/1) Accurately ripped
17 | (1/1) Accurately ripped
18 | (1/1) Accurately ripped
19 | (1/1) Accurately ripped

==== Контрольная сумма отчёта CD49C5E933A608E29A7FEA115BC99F10A18E7C199A3EE27DD4429ABEB2C586D1 ====


Якщо Ви справді бажаєте підтримати українське - після прослуховування, якщо музика вам сподобалась, придбайте ліцензійний диск. Підтримаймо вітчизняних виконавців!


Срібний реліз (на рейтинг впливає 50% завантаженого)
 Трекер:    Зареєстрований   

Завантажити / скачати українську музику



відео для новачків



 Зареєстрований:   2015-06-07 15:35
 Розмір:   317 MB 
 Оцінка музики:   10/10 (Голосів: 4)
   
Ваш часовий пояс: GMT + 2 Години

Нова тема   Відповісти