Завантажити та скачати торренти українською


Гангста Love / Rob the Mob (2014) 720p Ukr/Eng | Sub Eng

Нові коментарі

Нова тема   Відповісти
Автор Повідомлення
Anonymous 







2015-06-07 15:15  
Гангста Love / Rob the Mob (2014) 720p Ukr/Eng | Sub Eng

Гангста Love / Rob the Mob (2014) 720p Ukr/Eng | Sub Eng


Жанр: драма, кримінальний
Країна: США



Кінокомпанія: Exchange, The, RTM Film Inc
Режисер: Реймонд Де Фелітта
Актори: Майкл Пітт , Ніна Аріанда , Енді Гарсіа , Рей Романо , Берт Янг , Гріффін Данн , Майкл Рісполі , Аїда Туртурро , Френк Вейлі , Кеті Моріарті

Сюжет:
Головні герої фімльу «Ганста Love» – люди відчайдушні. Розі (Ніна Аріанда) та Томмі (Майкл Пітт) безмежно кохають одне одного та дуже хочуть влаштувати розкішне весілля. Але всі їхні мрії розбиваються об жорстоку реальність – їм ніколи і ніде не заробити таких грошей. Тому вони наважуються на ризикований крок – вони обкрадають верхівку мафії Нью-Йорку, бо переконані – хто-хто, а кримінальні авторитети точно не стануть кликати поліцію на допомогу. Декілька налетів проходять вдало для парочки. Можливо, так би й продовжувалось далі, якби разом із грошима вони не поцупили важливий запис – однаково безцінний як для мафії так і для ФБР.


Тривалість: 01:44:11
Якість:
Відео:
кодек:
розмір кадру: 1280 х 720
бітрейт: 7216 кб/с

Аудіо # 1:
мова: українська
переклад: професійний дубльований
кодек: 2.0
бітрейт: 192 кб/с

Аудіо # 2:
мова: англійська
переклад: оригінал
кодек: 5.1
бітрейт: 448 кб/с

Субтитри:
мова: англійська
тип: програмні (м'які)
формат: *.srt
MediaInfo
General
Unique ID : 210989444433475390815911962196082831023 (0x9EBB16C20BC12B3F9E7D49234C362EAF)
Complete name : E:\Rob the Mob (2014) 720p [Ukr. Eng] [Sub Eng] [Hurtom].mkv
Format : Matroska
Format version : Version 4 / Version 2
File size : 5.83 GiB
Duration : 1h 44mn
Overall bit rate : 8 015 Kbps
Encoded date : UTC 2015-06-07 13:02:51
Writing application : mkvmerge v7.9.0 ('Birds') 64bit
Writing library : libebml v1.3.1 + libmatroska v1.4.2
DURATION : 01:44:11.936000000
NUMBER_OF_FRAMES : 195373
NUMBER_OF_BYTES : 150046464
_STATISTICS_WRITING_APP : mkvmerge v7.9.0 ('Birds') 64bit
_STATISTICS_WRITING_DATE_UT : 2015-06-07 13:02:51
_STATISTICS_TAGS : BPS DURATION NUMBER_OF_FRAMES NUMBER_OF_BYTES

Video
ID : 1
Format : AVC
Format/Info : Advanced Video Codec
Format profile : [email protected]
Format settings, CABAC : Yes
Format settings, ReFrames : 9 frames
Codec ID : V_MPEG4/ISO/AVC
Duration : 1h 44mn
Bit rate : 7 216 Kbps
Width : 1 280 pixels
Height : 720 pixels
Display aspect ratio : 16:9
Frame rate mode : Constant
Frame rate : 23.976 fps
Color space : YUV
Chroma subsampling : 4:2:0
Bit depth : 8 bits
Scan type : Progressive
Bits/(Pixel*Frame) : 0.327
Stream size : 5.25 GiB (90%)
Writing library : core 142 r2431kMod ac76440
Encoding settings : cabac=1 / ref=9 / deblock=1:-3:-3 / analyse=0x3:0x133 / me=tesa / subme=11 / psy=1 / fade_compensate=0.00 / psy_rd=1.00:0.00 / mixed_ref=1 / me_range=24 / chroma_me=1 / trellis=2 / 8x8dct=1 / cqm=0 / deadzone=21,11 / fast_pskip=0 / chroma_qp_offset=-2 / threads=6 / lookahead_threads=1 / sliced_threads=0 / nr=0 / decimate=0 / interlaced=0 / bluray_compat=0 / constrained_intra=0 / fgo=0 / bframes=9 / b_pyramid=2 / b_adapt=2 / b_bias=0 / direct=3 / weightb=1 / open_gop=0 / weightp=2 / keyint=250 / keyint_min=23 / scenecut=40 / intra_refresh=0 / rc=crf / mbtree=0 / crf=18.0000 / qcomp=0.75 / qpmin=0 / qpmax=69 / qpstep=4 / ip_ratio=1.30 / pb_ratio=1.20 / aq=1:0.95
Language : English
Default : Yes
Forced : No
DURATION : 01:44:11.287000000
NUMBER_OF_FRAMES : 149881
NUMBER_OF_BYTES : 5762471167
_STATISTICS_WRITING_APP : mkvmerge v7.9.0 ('Birds') 64bit
_STATISTICS_WRITING_DATE_UT : 2015-06-07 13:02:51
_STATISTICS_TAGS : BPS DURATION NUMBER_OF_FRAMES NUMBER_OF_BYTES

Audio #1
ID : 2
Format : AC-3
Format/Info : Audio Coding 3
Mode extension : CM (complete main)
Format settings, Endianness : Big
Codec ID : A_AC3
Duration : 1h 44mn
Bit rate mode : Constant
Bit rate : 192 Kbps
Channel(s) : 2 channels
Channel positions : Front: L R
Sampling rate : 48.0 KHz
Compression mode : Lossy
Stream size : 143 MiB (2%)
Language : Ukrainian
Default : Yes
Forced : No

Audio #2
ID : 3
Format : AC-3
Format/Info : Audio Coding 3
Mode extension : CM (complete main)
Format settings, Endianness : Big
Codec ID : A_AC3
Duration : 1h 44mn
Bit rate mode : Constant
Bit rate : 448 Kbps
Channel(s) : 6 channels
Channel positions : Front: L C R, Side: L R, LFE
Sampling rate : 48.0 KHz
Compression mode : Lossy
Stream size : 334 MiB (6%)
Language : English
Default : No
Forced : No

Text
ID : 4
Format : UTF-8
Codec ID : S_TEXT/UTF8
Codec ID/Info : UTF-8 Plain Text
Language : English
Default : No
Forced : No

Menu
00:00:00.000 : en:00:00:00.000
00:08:36.850 : en:00:08:36.850
00:16:10.887 : en:00:16:10.887
00:25:03.252 : en:00:25:03.252
00:32:48.341 : en:00:32:48.341
00:42:56.699 : en:00:42:56.699
00:50:36.700 : en:00:50:36.700
00:58:07.901 : en:00:58:07.901
01:07:19.869 : en:01:07:19.869
01:15:25.521 : en:01:15:25.521
01:23:28.587 : en:01:23:28.587
01:39:38.514 : en:01:39:38.514


Джерело:


 Трекер:    Зареєстрований   

Завантажити / скачати фільм українською



відео для новачків



 Зареєстрований:   2015-06-07 15:15
 Розмір:   5.83 GB 
 Оцінка фільму:   6.5/10 (Голосів: 8)
   
Інші релізи
   Гангста Love / Rob the Mob (2014) AVC Gelios  3 / 0   1.59 GB   2015-06-07 16:26 
   Гангста Love / Rob the Mob (2014) AngryBirdsUA  1 / 0   1.45 GB   2015-06-07 15:15 
SebiVise 
Частий відвідувач


З нами з: 16.08.10
Востаннє: 10.12.16
Повідомлень: 48

2016-08-27 19:28  
Хтось може роздати?
Ваш часовий пояс: GMT + 2 Години

Нова тема   Відповісти