Завантажити та скачати торренти українською


Гурт "Дармограй" - Українські застольні пісні 7 (2005) [FLAC] | Folk/Pop

Нові коментарі

Нова тема   Відповісти
Останній раз роздавалося kolpavel (2016-12-08)
Автор Повідомлення
kolpavel 
VIP


З нами з: 04.05.14
Востаннє: 08.12.16
Повідомлень: 1059

2015-06-06 15:28  
Гурт "Дармограй" - Українські застольні пісні 7 (2005) [FLAC] | Folk/Pop

Гурт "Дармограй" - Українські застольні пісні 7 (2005) [FLAC] | Folk/Pop


Стиль: Folk
Країна, місто: Україна, Вiнниця.
Сайти: Офіційний сайт
Видавець: МПП фiрма МЕД
Пісні:
    01. Сам п'ю
    02. Ой, встану я раненько
    03. Гиля, гиля, сірі гуси
    04. Ішов козак потайком
    05. Пироги
    06. Ой, що там за шум учинився
    07. Горлице
    08. Їхав козак містом
    09. Ой, у вишневому садочку
    10. Кума
    11. Чом ти не прийшов
    12. Ой, куме, куме
    13. В саду гуляла
    14. Сивий кінь
    15. Цигани

Тривалість: 00:49:58
Мова: українська
Аудіо-кодек: FLAC
Бітрейт: 952 кб/с
Джерело: Власний диск
Додаткова інформація:
Звiт EAC:
Exact Audio Copy V1.0 beta 6 from 9. April 2015

Отчёт EAC об извлечении, выполненном 6. июня 2015, 16:07

Гурт "Дармограй" / Українські застольні пісні

Дисковод: Optiarc DVD RW AD-7561S Adapter: 1 ID: 0

Режим чтения : Достоверность
Использование точного потока : Да
Отключение кэша аудио : Нет
Использование указателей C2 : Да

Коррекция смещения при чтении : 6
Способность читать области Lead-in и Lead-out : Нет
Заполнение пропущенных сэмплов тишиной : Да
Удаление блоков с тишиной в начале и конце : Нет
При вычислениях CRC использовались нулевые сэмплы : Да
Интерфейс : Встроенный Win32-интерфейс для Win NT/2000

Выходной формат : Пользовательский кодировщик
Выбранный битрейт : 1024 kBit/s
Качество : Высокий
Добавление ID3-тега : Нет
Утилита сжатия : C:\Program Files\Exact Audio Copy\Flac\flac.exe
Дополнительные параметры : -6 -V -T "ARTIST=%artist%" -T "TITLE=%title%" -T "ALBUM=%albumtitle%" -T "DATE=%year%" -T "TRACKNUMBER=%tracknr%" -T "GENRE=%genre%" -T "COMMENT=%comment%" -T "BAND=%albuminterpret%" -T "ALBUMARTIST=%albuminterpret%" -T "COMPOSER=%composer%" %haslyrics%--tag-from-file=LYRICS="%lyricsfile%"%haslyrics% -T "DISCNUMBER=%cdnumber%" -T "TOTALDISCS=%totalcds%" -T "TOTALTRACKS=%numtracks%" %hascover%--picture="%coverfile%"%hascover% %source% -o %dest%

TOC извлечённого CD

Трек | Старт | Длительность | Начальный сектор | Конечный сектор
---------------------------------------------------------------------
1 | 0:00.00 | 3:42.51 | 0 | 16700
2 | 3:42.51 | 2:05.41 | 16701 | 26116
3 | 5:48.17 | 3:26.47 | 26117 | 41613
4 | 9:14.64 | 2:39.01 | 41614 | 53539
5 | 11:53.65 | 5:11.70 | 53540 | 76934
6 | 17:05.60 | 3:05.45 | 76935 | 90854
7 | 20:11.30 | 4:46.64 | 90855 | 112368
8 | 24:58.19 | 2:15.23 | 112369 | 122516
9 | 27:13.42 | 3:40.51 | 122517 | 139067
10 | 30:54.18 | 3:25.57 | 139068 | 154499
11 | 34:20.00 | 3:28.10 | 154500 | 170109
12 | 37:48.10 | 2:15.59 | 170110 | 180293
13 | 40:03.69 | 4:21.42 | 180294 | 199910
14 | 44:25.36 | 3:10.49 | 199911 | 214209
15 | 47:36.10 | 2:22.03 | 214210 | 224862

Характеристики диапазона извлечения и сообщения об ошибках

Выбранный диапазон

Имя файла C:\Users\User\Documents\Гурт ''Дармограй'' - Українські застольні пісні.wav

Пиковый уровень 100.0 %
Скорость извлечения 5.1 X
Качество диапазона 100.0 %
CRC теста CFFE68F8
CRC копии CFFE68F8
Копирование... OK

Ошибок не произошло

AccurateRip: сводка

Трек 1 отсутствует в базе данных
Трек 2 отсутствует в базе данных
Трек 3 отсутствует в базе данных
Трек 4 отсутствует в базе данных
Трек 5 отсутствует в базе данных
Трек 6 отсутствует в базе данных
Трек 7 отсутствует в базе данных
Трек 8 отсутствует в базе данных
Трек 9 отсутствует в базе данных
Трек 10 отсутствует в базе данных
Трек 11 отсутствует в базе данных
Трек 12 отсутствует в базе данных
Трек 13 отсутствует в базе данных
Трек 14 отсутствует в базе данных
Трек 15 отсутствует в базе данных

Ни одного трека нет в базе AccurateRip

Конец отчёта

---- CUETools DB Plugin V2.1.6

[CTDB TOCID: bZLhHx38Zai9uEFUph70_IdFzII-] disk not present in database
Submit result: bZLhHx38Zai9uEFUph70_IdFzII- has been uploaded

==== Контрольная сумма отчёта CB13D6AD509EB69000ED03FE49B0F0F26A7C0E9D51C04910A47E1D41AFA109B3 ====

------------------------------------------------------------

Exact Audio Copy V1.0 beta 6 from 9. April 2015

Отчёт EAC об извлечении, выполненном 6. июня 2015, 16:07

Гурт "Дармограй" / Українські застольні пісні

Дисковод: Optiarc DVD RW AD-7561S Adapter: 1 ID: 0

Режим чтения : Достоверность
Использование точного потока : Да
Отключение кэша аудио : Нет
Использование указателей C2 : Да

Коррекция смещения при чтении : 6
Способность читать области Lead-in и Lead-out : Нет
Заполнение пропущенных сэмплов тишиной : Да
Удаление блоков с тишиной в начале и конце : Нет
При вычислениях CRC использовались нулевые сэмплы : Да
Интерфейс : Встроенный Win32-интерфейс для Win NT/2000

Выходной формат : Пользовательский кодировщик
Выбранный битрейт : 1024 kBit/s
Качество : Высокий
Добавление ID3-тега : Нет
Утилита сжатия : C:\Program Files\Exact Audio Copy\Flac\flac.exe
Дополнительные параметры : -6 -V -T "ARTIST=%artist%" -T "TITLE=%title%" -T "ALBUM=%albumtitle%" -T "DATE=%year%" -T "TRACKNUMBER=%tracknr%" -T "GENRE=%genre%" -T "COMMENT=%comment%" -T "BAND=%albuminterpret%" -T "ALBUMARTIST=%albuminterpret%" -T "COMPOSER=%composer%" %haslyrics%--tag-from-file=LYRICS="%lyricsfile%"%haslyrics% -T "DISCNUMBER=%cdnumber%" -T "TOTALDISCS=%totalcds%" -T "TOTALTRACKS=%numtracks%" %hascover%--picture="%coverfile%"%hascover% %source% -o %dest%

TOC извлечённого CD

Трек | Старт | Длительность | Начальный сектор | Конечный сектор
---------------------------------------------------------------------
1 | 0:00.00 | 3:42.51 | 0 | 16700
2 | 3:42.51 | 2:05.41 | 16701 | 26116
3 | 5:48.17 | 3:26.47 | 26117 | 41613
4 | 9:14.64 | 2:39.01 | 41614 | 53539
5 | 11:53.65 | 5:11.70 | 53540 | 76934
6 | 17:05.60 | 3:05.45 | 76935 | 90854
7 | 20:11.30 | 4:46.64 | 90855 | 112368
8 | 24:58.19 | 2:15.23 | 112369 | 122516
9 | 27:13.42 | 3:40.51 | 122517 | 139067
10 | 30:54.18 | 3:25.57 | 139068 | 154499
11 | 34:20.00 | 3:28.10 | 154500 | 170109
12 | 37:48.10 | 2:15.59 | 170110 | 180293
13 | 40:03.69 | 4:21.42 | 180294 | 199910
14 | 44:25.36 | 3:10.49 | 199911 | 214209
15 | 47:36.10 | 2:22.03 | 214210 | 224862

Характеристики диапазона извлечения и сообщения об ошибках

Выбранный диапазон

Имя файла C:\Users\User\Documents\Гурт ''Дармограй'' - Українські застольні пісні.wav

Пиковый уровень 100.0 %
Скорость извлечения 5.1 X
Качество диапазона 100.0 %
CRC теста CFFE68F8
CRC копии CFFE68F8
Копирование... OK

Ошибок не произошло

AccurateRip: сводка

Трек 1 отсутствует в базе данных
Трек 2 отсутствует в базе данных
Трек 3 отсутствует в базе данных
Трек 4 отсутствует в базе данных
Трек 5 отсутствует в базе данных
Трек 6 отсутствует в базе данных
Трек 7 отсутствует в базе данных
Трек 8 отсутствует в базе данных
Трек 9 отсутствует в базе данных
Трек 10 отсутствует в базе данных
Трек 11 отсутствует в базе данных
Трек 12 отсутствует в базе данных
Трек 13 отсутствует в базе данных
Трек 14 отсутствует в базе данных
Трек 15 отсутствует в базе данных

Ни одного трека нет в базе AccurateRip

Конец отчёта

---- CUETools DB Plugin V2.1.6

[CTDB TOCID: bZLhHx38Zai9uEFUph70_IdFzII-] disk not present in database
Submit result: bZLhHx38Zai9uEFUph70_IdFzII- has been uploaded

==== Контрольная сумма отчёта CB13D6AD509EB69000ED03FE49B0F0F26A7C0E9D51C04910A47E1D41AFA109B3 ====

------------------------------------------------------------

Exact Audio Copy V1.0 beta 6 from 9. April 2015

Отчёт EAC об извлечении, выполненном 6. июня 2015, 16:07

Гурт "Дармограй" / Українські застольні пісні

Дисковод: Optiarc DVD RW AD-7561S Adapter: 1 ID: 0

Режим чтения : Достоверность
Использование точного потока : Да
Отключение кэша аудио : Нет
Использование указателей C2 : Да

Коррекция смещения при чтении : 6
Способность читать области Lead-in и Lead-out : Нет
Заполнение пропущенных сэмплов тишиной : Да
Удаление блоков с тишиной в начале и конце : Нет
При вычислениях CRC использовались нулевые сэмплы : Да
Интерфейс : Встроенный Win32-интерфейс для Win NT/2000

Выходной формат : Пользовательский кодировщик
Выбранный битрейт : 1024 kBit/s
Качество : Высокий
Добавление ID3-тега : Нет
Утилита сжатия : C:\Program Files\Exact Audio Copy\Flac\flac.exe
Дополнительные параметры : -6 -V -T "ARTIST=%artist%" -T "TITLE=%title%" -T "ALBUM=%albumtitle%" -T "DATE=%year%" -T "TRACKNUMBER=%tracknr%" -T "GENRE=%genre%" -T "COMMENT=%comment%" -T "BAND=%albuminterpret%" -T "ALBUMARTIST=%albuminterpret%" -T "COMPOSER=%composer%" %haslyrics%--tag-from-file=LYRICS="%lyricsfile%"%haslyrics% -T "DISCNUMBER=%cdnumber%" -T "TOTALDISCS=%totalcds%" -T "TOTALTRACKS=%numtracks%" %hascover%--picture="%coverfile%"%hascover% %source% -o %dest%

TOC извлечённого CD

Трек | Старт | Длительность | Начальный сектор | Конечный сектор
---------------------------------------------------------------------
1 | 0:00.00 | 3:42.51 | 0 | 16700
2 | 3:42.51 | 2:05.41 | 16701 | 26116
3 | 5:48.17 | 3:26.47 | 26117 | 41613
4 | 9:14.64 | 2:39.01 | 41614 | 53539
5 | 11:53.65 | 5:11.70 | 53540 | 76934
6 | 17:05.60 | 3:05.45 | 76935 | 90854
7 | 20:11.30 | 4:46.64 | 90855 | 112368
8 | 24:58.19 | 2:15.23 | 112369 | 122516
9 | 27:13.42 | 3:40.51 | 122517 | 139067
10 | 30:54.18 | 3:25.57 | 139068 | 154499
11 | 34:20.00 | 3:28.10 | 154500 | 170109
12 | 37:48.10 | 2:15.59 | 170110 | 180293
13 | 40:03.69 | 4:21.42 | 180294 | 199910
14 | 44:25.36 | 3:10.49 | 199911 | 214209
15 | 47:36.10 | 2:22.03 | 214210 | 224862

Характеристики диапазона извлечения и сообщения об ошибках

Выбранный диапазон

Имя файла C:\Users\User\Documents\Гурт ''Дармограй'' - Українські застольні пісні.wav

Пиковый уровень 100.0 %
Скорость извлечения 5.1 X
Качество диапазона 100.0 %
CRC теста CFFE68F8
CRC копии CFFE68F8
Копирование... OK

Ошибок не произошло

AccurateRip: сводка

Трек 1 отсутствует в базе данных
Трек 2 отсутствует в базе данных
Трек 3 отсутствует в базе данных
Трек 4 отсутствует в базе данных
Трек 5 отсутствует в базе данных
Трек 6 отсутствует в базе данных
Трек 7 отсутствует в базе данных
Трек 8 отсутствует в базе данных
Трек 9 отсутствует в базе данных
Трек 10 отсутствует в базе данных
Трек 11 отсутствует в базе данных
Трек 12 отсутствует в базе данных
Трек 13 отсутствует в базе данных
Трек 14 отсутствует в базе данных
Трек 15 отсутствует в базе данных

Ни одного трека нет в базе AccurateRip

Конец отчёта

---- CUETools DB Plugin V2.1.6

[CTDB TOCID: bZLhHx38Zai9uEFUph70_IdFzII-] disk not present in database
Submit result: bZLhHx38Zai9uEFUph70_IdFzII- has been uploaded

==== Контрольная сумма отчёта CB13D6AD509EB69000ED03FE49B0F0F26A7C0E9D51C04910A47E1D41AFA109B3 ====


Якщо Ви справді бажаєте підтримати українське - після прослуховування, якщо музика вам сподобалась, придбайте ліцензійний диск. Підтримаймо вітчизняних виконавців!


Срібний реліз (на рейтинг впливає 50% завантаженого)
 Трекер:    Зареєстрований   

Завантажити / скачати українську музику



відео для новачків



 Зареєстрований:   2015-06-06 15:28
 Розмір:   340 MB 
 Оцінка музики:   10/10 (Голосів: 3)
   
andr1ev 
Частий відвідувач


З нами з: 17.01.12
Востаннє: 04.12.16
Повідомлень: 46

2015-06-06 19:38  
Дякую! Українці завжди були співучою нацією!
kolpavel 
VIP


З нами з: 04.05.14
Востаннє: 08.12.16
Повідомлень: 1059

2015-09-18 17:57  
andr1ev, і є!
Ваш часовий пояс: GMT + 2 Години

Нова тема   Відповісти