Завантажити та скачати торренти українською


Гурт "Експрес" - Українські застольні пісні. Стіл третiй (2006) [FLAC] | Folk / Pop

Нові коментарі

Нова тема   Відповісти
Автор Повідомлення
kolpavel 
VIP


З нами з: 04.05.14
Востаннє: 11.12.16
Повідомлень: 1062

2015-06-06 14:17  
Гурт "Експрес" - Українські застольні пісні. Стіл третiй (2006) [FLAC] | Folk / Pop

Гурт "Експрес" - Українські застольні пісні. Стіл третiй (2006) [FLAC] | Folk / Pop


Стиль: Folk, Pop
Країна: Україна
Видавець: Вiтряк рекордс
Пісні:
    01. Два кольори - муз. О.Бiлаш, слова Д.Павличко.
    02. Смерека - муз. та слова Л.Яким.
    03. Бiлi каштани - муз. та слова народнi.
    04. Iхав козак мiстом - муз. та слова народнi.
    05. Ой, ти рiченько - муз. А.Пашкевич, слова Д.Луценко.
    06. Куди б я не iхала - муз. та слова народнi.
    07. Очi волошковi муз. С.Сабодаж, слова А.Драгомирецький.
    08. Iшов козак потайком - муз. та слова народнi.
    09. По садчику ходжу - муз. та слова народнi.
    10. Iванку, Iванку - муз. та слова народнi.
    11. Сильний вiтер - муз. та слова народнi.
    12. Рада-би я - муз. та слова народнi.
    13. Плакуча гiтара - муз. та слова народнi.
    14. Ясени - муз. О.Бiлаш, слова М.Ткач.

Тривалість: 00:51:46
Мова: українська
Аудіо-кодек: FLAC
Бітрейт: 989 кб/с
Джерело: ріп зроблено з ліцензійного компакт-диска із власної фонотеки
Додаткова інформація:
Звiт EAC:
Exact Audio Copy V1.0 beta 6 from 9. April 2015

Отчёт EAC об извлечении, выполненном 6. июня 2015, 15:07

Гурт "Экспрес" / Українськi застольнi пiснi

Дисковод: Optiarc DVD RW AD-7561S Adapter: 1 ID: 0

Режим чтения : Достоверность
Использование точного потока : Да
Отключение кэша аудио : Нет
Использование указателей C2 : Да

Коррекция смещения при чтении : 6
Способность читать области Lead-in и Lead-out : Нет
Заполнение пропущенных сэмплов тишиной : Да
Удаление блоков с тишиной в начале и конце : Нет
При вычислениях CRC использовались нулевые сэмплы : Да
Интерфейс : Встроенный Win32-интерфейс для Win NT/2000

Выходной формат : Пользовательский кодировщик
Выбранный битрейт : 1024 kBit/s
Качество : Высокий
Добавление ID3-тега : Нет
Утилита сжатия : C:\Program Files\Exact Audio Copy\Flac\flac.exe
Дополнительные параметры : -6 -V -T "ARTIST=%artist%" -T "TITLE=%title%" -T "ALBUM=%albumtitle%" -T "DATE=%year%" -T "TRACKNUMBER=%tracknr%" -T "GENRE=%genre%" -T "COMMENT=%comment%" -T "BAND=%albuminterpret%" -T "ALBUMARTIST=%albuminterpret%" -T "COMPOSER=%composer%" %haslyrics%--tag-from-file=LYRICS="%lyricsfile%"%haslyrics% -T "DISCNUMBER=%cdnumber%" -T "TOTALDISCS=%totalcds%" -T "TOTALTRACKS=%numtracks%" %hascover%--picture="%coverfile%"%hascover% %source% -o %dest%

TOC извлечённого CD

Трек | Старт | Длительность | Начальный сектор | Конечный сектор
---------------------------------------------------------------------
1 | 0:00.00 | 4:23.53 | 0 | 19777
2 | 4:23.53 | 4:13.01 | 19778 | 38753
3 | 8:36.54 | 5:06.48 | 38754 | 61751
4 | 13:43.27 | 2:47.38 | 61752 | 74314
5 | 16:30.65 | 2:53.20 | 74315 | 87309
6 | 19:24.10 | 3:32.14 | 87310 | 103223
7 | 22:56.24 | 4:13.55 | 103224 | 122253
8 | 27:10.04 | 2:41.00 | 122254 | 134328
9 | 29:51.04 | 3:26.32 | 134329 | 149810
10 | 33:17.36 | 3:28.73 | 149811 | 165483
11 | 36:46.34 | 3:19.74 | 165484 | 180482
12 | 40:06.33 | 3:47.04 | 180483 | 197511
13 | 43:53.37 | 4:48.02 | 197512 | 219113
14 | 48:41.39 | 3:13.10 | 219114 | 233598

Характеристики диапазона извлечения и сообщения об ошибках

Выбранный диапазон

Имя файла C:\Users\User\Music\Українськi застольнi пiснi - Стiл 3 - копия\Гурт ''Экспрес'' - Українськi застольнi пiснi.wav

Пиковый уровень 98.9 %
Скорость извлечения 5.1 X
Качество диапазона 99.9 %
CRC теста 610203AF
CRC копии 610203AF
Копирование... OK

Ошибок не произошло

AccurateRip: сводка

Трек 1 отсутствует в базе данных
Трек 2 отсутствует в базе данных
Трек 3 отсутствует в базе данных
Трек 4 отсутствует в базе данных
Трек 5 отсутствует в базе данных
Трек 6 отсутствует в базе данных
Трек 7 отсутствует в базе данных
Трек 8 отсутствует в базе данных
Трек 9 отсутствует в базе данных
Трек 10 отсутствует в базе данных
Трек 11 отсутствует в базе данных
Трек 12 отсутствует в базе данных
Трек 13 отсутствует в базе данных
Трек 14 отсутствует в базе данных

Ни одного трека нет в базе AccurateRip

Конец отчёта

---- CUETools DB Plugin V2.1.6

[CTDB TOCID: 4icp9pzDvRdOM6SR8j3BHfc4c.o-] found
Submit result: already submitted
Track | CTDB Status
1 | (1/1) Accurately ripped
2 | (1/1) Accurately ripped
3 | (1/1) Accurately ripped
4 | (1/1) Accurately ripped
5 | (1/1) Accurately ripped
6 | (1/1) Accurately ripped
7 | (1/1) Accurately ripped
8 | (1/1) Accurately ripped
9 | (1/1) Accurately ripped
10 | (1/1) Accurately ripped
11 | (1/1) Accurately ripped
12 | (1/1) Accurately ripped
13 | (1/1) Accurately ripped
14 | (1/1) Accurately ripped

==== Контрольная сумма отчёта 70C03B8DFB67086C66E00617925A6634F01EEDB9C64F4D5BE4F51ABD8BA13BD1 ====

------------------------------------------------------------

Exact Audio Copy V1.0 beta 6 from 9. April 2015

Отчёт EAC об извлечении, выполненном 6. июня 2015, 15:07

Гурт "Экспрес" / Українськi застольнi пiснi

Дисковод: Optiarc DVD RW AD-7561S Adapter: 1 ID: 0

Режим чтения : Достоверность
Использование точного потока : Да
Отключение кэша аудио : Нет
Использование указателей C2 : Да

Коррекция смещения при чтении : 6
Способность читать области Lead-in и Lead-out : Нет
Заполнение пропущенных сэмплов тишиной : Да
Удаление блоков с тишиной в начале и конце : Нет
При вычислениях CRC использовались нулевые сэмплы : Да
Интерфейс : Встроенный Win32-интерфейс для Win NT/2000

Выходной формат : Пользовательский кодировщик
Выбранный битрейт : 1024 kBit/s
Качество : Высокий
Добавление ID3-тега : Нет
Утилита сжатия : C:\Program Files\Exact Audio Copy\Flac\flac.exe
Дополнительные параметры : -6 -V -T "ARTIST=%artist%" -T "TITLE=%title%" -T "ALBUM=%albumtitle%" -T "DATE=%year%" -T "TRACKNUMBER=%tracknr%" -T "GENRE=%genre%" -T "COMMENT=%comment%" -T "BAND=%albuminterpret%" -T "ALBUMARTIST=%albuminterpret%" -T "COMPOSER=%composer%" %haslyrics%--tag-from-file=LYRICS="%lyricsfile%"%haslyrics% -T "DISCNUMBER=%cdnumber%" -T "TOTALDISCS=%totalcds%" -T "TOTALTRACKS=%numtracks%" %hascover%--picture="%coverfile%"%hascover% %source% -o %dest%

TOC извлечённого CD

Трек | Старт | Длительность | Начальный сектор | Конечный сектор
---------------------------------------------------------------------
1 | 0:00.00 | 4:23.53 | 0 | 19777
2 | 4:23.53 | 4:13.01 | 19778 | 38753
3 | 8:36.54 | 5:06.48 | 38754 | 61751
4 | 13:43.27 | 2:47.38 | 61752 | 74314
5 | 16:30.65 | 2:53.20 | 74315 | 87309
6 | 19:24.10 | 3:32.14 | 87310 | 103223
7 | 22:56.24 | 4:13.55 | 103224 | 122253
8 | 27:10.04 | 2:41.00 | 122254 | 134328
9 | 29:51.04 | 3:26.32 | 134329 | 149810
10 | 33:17.36 | 3:28.73 | 149811 | 165483
11 | 36:46.34 | 3:19.74 | 165484 | 180482
12 | 40:06.33 | 3:47.04 | 180483 | 197511
13 | 43:53.37 | 4:48.02 | 197512 | 219113
14 | 48:41.39 | 3:13.10 | 219114 | 233598

Характеристики диапазона извлечения и сообщения об ошибках

Выбранный диапазон

Имя файла C:\Users\User\Music\Українськi застольнi пiснi - Стiл 3 - копия\Гурт ''Экспрес'' - Українськi застольнi пiснi.wav

Пиковый уровень 98.9 %
Скорость извлечения 5.1 X
Качество диапазона 99.9 %
CRC теста 610203AF
CRC копии 610203AF
Копирование... OK

Ошибок не произошло

AccurateRip: сводка

Трек 1 отсутствует в базе данных
Трек 2 отсутствует в базе данных
Трек 3 отсутствует в базе данных
Трек 4 отсутствует в базе данных
Трек 5 отсутствует в базе данных
Трек 6 отсутствует в базе данных
Трек 7 отсутствует в базе данных
Трек 8 отсутствует в базе данных
Трек 9 отсутствует в базе данных
Трек 10 отсутствует в базе данных
Трек 11 отсутствует в базе данных
Трек 12 отсутствует в базе данных
Трек 13 отсутствует в базе данных
Трек 14 отсутствует в базе данных

Ни одного трека нет в базе AccurateRip

Конец отчёта

---- CUETools DB Plugin V2.1.6

[CTDB TOCID: 4icp9pzDvRdOM6SR8j3BHfc4c.o-] found
Submit result: already submitted
Track | CTDB Status
1 | (1/1) Accurately ripped
2 | (1/1) Accurately ripped
3 | (1/1) Accurately ripped
4 | (1/1) Accurately ripped
5 | (1/1) Accurately ripped
6 | (1/1) Accurately ripped
7 | (1/1) Accurately ripped
8 | (1/1) Accurately ripped
9 | (1/1) Accurately ripped
10 | (1/1) Accurately ripped
11 | (1/1) Accurately ripped
12 | (1/1) Accurately ripped
13 | (1/1) Accurately ripped
14 | (1/1) Accurately ripped

==== Контрольная сумма отчёта 70C03B8DFB67086C66E00617925A6634F01EEDB9C64F4D5BE4F51ABD8BA13BD1 ====


Якщо Ви справді бажаєте підтримати українське - після прослуховування, якщо музика вам сподобалась, придбайте ліцензійний диск. Підтримаймо вітчизняних виконавців!


Срібний реліз (на рейтинг впливає 50% завантаженого)
 Трекер:    Зареєстрований   

Завантажити / скачати українську музику



відео для новачків



 Зареєстрований:   2015-06-06 14:17
 Розмір:   368 MB 
 Оцінка музики:   9.8/10 (Голосів: 5)
   
mr.killer 
Свій


З нами з: 11.08.10
Востаннє: 08.12.16
Повідомлень: 146

2015-11-23 22:49  
чи є скани до альбому?
kolpavel 
VIP


З нами з: 04.05.14
Востаннє: 11.12.16
Повідомлень: 1062

2015-11-27 15:50  
mr.killer
Нажаль.

Ваш часовий пояс: GMT + 2 Години

Нова тема   Відповісти