Завантажити та скачати торренти українською


VA - Гульки з "МЕДом" 10 років (2004) [FLAC] | Pop / Folk

Нові коментарі

Нова тема   Відповісти
Автор Повідомлення
kolpavel 
VIP


З нами з: 04.05.14
Востаннє: 10.12.16
Повідомлень: 1062

2015-06-05 22:27  
VA - Гульки з "МЕДом" 10 років (2004) [FLAC] | Pop / Folk



Стиль: Pop Folk
Країна, місто: Україна, Вiнниця.
Сайти: Офіційний сайт
Видавець: МПП фiрма МЕД
Пісні:
    1. Ой, летіли журавлі - Гурт "Козятинські козаки", слова і музика народні.
    2. Нова хата - М. Березутський, слова і музика М. Мазур.
    3. На весіллі - Люба з Дуба, слова і музика Люба з Дуба.
    4. Ой, поїхав наш Іван - Гурт "Дармограй", слова і музика народні.
    5. Гуляю я - В. Гуменчук, слова і музика В. Гуменчука.
    6. Дуй-дуй - Циганський театр "Романс", слова і музика народні.
    7. Кухарка - М. Березутський, слова і музика М. Мазур.
    8. Чужина - М. Янченко, слова і музика М. Янченко.
    9. Гапка - Ансамбль "Калина", слова і музика А. Петрушкевич.
    10. Чорна гора - VaSя CLUB, слова і музика В. Гонтарський.
    11. Полюбила - Люба Здуба, слова і музика Люба Здуба.
    12. Теща - М. Березутський, слова і музика М. Мазур.
    13. Э у мене тесть - Гурт "Козятинські козаки", слова Б. Зільберман, музика народнi.
    14. Роксолана - Люба Здуба, слова і музика Люба Здуба.
    15. Село - війна - М. Березутський, слова і музика М. Мазур.
    16. Василі - В. Гуменчук, слова і музика В. Гуменчука.
    17. Чардаш - І. Ярина, слова і музика народні.
    18. У міському парку - Гурт "Ретро", музика М. Блантер.
    19. А весілля гуляє - В. Тепла і Я. Теплий, слова і музика Я. Теплий.
    20. Туди-сюди - Гурт "Козятинські козаки", слова і музика народні.
    21. Самогоночка - М. Березутський, слова і музика М. Мазур.
    22. На коня - М. Янченко, слова і музика М. Янченко.

Тривалість: 01:11:45
Мова: українська
Аудіо-кодек: FLAC
Бітрейт: 994 кб/с
Джерело: ріп зроблено з ліцензійного компакт-диска із власної фонотеки
Додаткова інформація:
EAC:


------------------------------------------------------------

Exact Audio Copy V1.0 beta 6 from 9. April 2015

Отчёт EAC об извлечении, выполненном 5. июня 2015, 22:04

Unknown Artist / Гульки з медом 10 рокiв

Дисковод: Optiarc DVD RW AD-7561S Adapter: 1 ID: 0

Режим чтения : Достоверность
Использование точного потока : Да
Отключение кэша аудио : Нет
Использование указателей C2 : Да

Коррекция смещения при чтении : 6
Способность читать области Lead-in и Lead-out : Нет
Заполнение пропущенных сэмплов тишиной : Да
Удаление блоков с тишиной в начале и конце : Нет
При вычислениях CRC использовались нулевые сэмплы : Да
Интерфейс : Встроенный Win32-интерфейс для Win NT/2000

Выходной формат : Пользовательский кодировщик
Выбранный битрейт : 1024 kBit/s
Качество : Высокий
Добавление ID3-тега : Нет
Утилита сжатия : C:\Program Files\Exact Audio Copy\FLAC\FLAC.EXE
Дополнительные параметры : -6 -V -T "ARTIST=%artist%" -T "TITLE=%title%" -T "ALBUM=%albumtitle%" -T "DATE=%year%" -T "TRACKNUMBER=%tracknr%" -T "GENRE=%genre%" -T "COMMENT=%comment%" -T "BAND=%albuminterpret%" -T "ALBUMARTIST=%albuminterpret%" -T "COMPOSER=%composer%" %haslyrics%--tag-from-file=LYRICS="%lyricsfile%"%haslyrics% -T "DISCNUMBER=%cdnumber%" -T "TOTALDISCS=%totalcds%" -T "TOTALTRACKS=%numtracks%" %hascover%--picture="%coverfile%"%hascover% %source% -o %dest%

TOC извлечённого CD

Трек | Старт | Длительность | Начальный сектор | Конечный сектор
---------------------------------------------------------------------
1 | 0:00.00 | 3:30.61 | 0 | 15810
2 | 3:30.61 | 4:06.71 | 15811 | 34331
3 | 7:37.57 | 2:20.00 | 34332 | 44831
4 | 9:57.57 | 2:30.69 | 44832 | 56150
5 | 12:28.51 | 3:18.02 | 56151 | 71002
6 | 15:46.53 | 4:14.56 | 71003 | 90108
7 | 20:01.34 | 3:59.49 | 90109 | 108082
8 | 24:01.08 | 3:32.48 | 108083 | 124030
9 | 27:33.56 | 2:58.26 | 124031 | 137406
10 | 30:32.07 | 3:01.28 | 137407 | 151009
11 | 33:33.35 | 2:58.74 | 151010 | 164433
12 | 36:32.34 | 4:46.41 | 164434 | 185924
13 | 41:19.00 | 2:39.21 | 185925 | 197870
14 | 43:58.21 | 2:17.03 | 197871 | 208148
15 | 46:15.24 | 4:08.02 | 208149 | 226750
16 | 50:23.26 | 3:30.38 | 226751 | 242538
17 | 53:53.64 | 2:39.04 | 242539 | 254467
18 | 56:32.68 | 3:30.31 | 254468 | 270248
19 | 60:03.24 | 3:23.27 | 270249 | 285500
20 | 63:26.51 | 2:12.65 | 285501 | 295465
21 | 65:39.41 | 2:30.09 | 295466 | 306724
22 | 68:09.50 | 3:35.37 | 306725 | 322886

Характеристики диапазона извлечения и сообщения об ошибках

Выбранный диапазон

Имя файла C:\Users\User\Music\Unknown Artist - Гульки з медом 10 рокiв.wav

Пиковый уровень 100.0 %
Скорость извлечения 5.5 X
Качество диапазона 100.0 %
CRC теста 842D283D
CRC копии 842D283D
Копирование... OK

Ошибок не произошло

AccurateRip: сводка

Трек 1 отсутствует в базе данных
Трек 2 отсутствует в базе данных
Трек 3 отсутствует в базе данных
Трек 4 отсутствует в базе данных
Трек 5 отсутствует в базе данных
Трек 6 отсутствует в базе данных
Трек 7 отсутствует в базе данных
Трек 8 отсутствует в базе данных
Трек 9 отсутствует в базе данных
Трек 10 отсутствует в базе данных
Трек 11 отсутствует в базе данных
Трек 12 отсутствует в базе данных
Трек 13 отсутствует в базе данных
Трек 14 отсутствует в базе данных
Трек 15 отсутствует в базе данных
Трек 16 отсутствует в базе данных
Трек 17 отсутствует в базе данных
Трек 18 отсутствует в базе данных
Трек 19 отсутствует в базе данных
Трек 20 отсутствует в базе данных
Трек 21 отсутствует в базе данных
Трек 22 отсутствует в базе данных

Ни одного трека нет в базе AccurateRip

Конец отчёта

---- CUETools DB Plugin V2.1.6

[CTDB TOCID: XNJMPSwKRqbEIYHX5Hj0U9_K3SM-] found
Submit result: already submitted
Track | CTDB Status
1 | (1/1) Accurately ripped
2 | (1/1) Accurately ripped
3 | (1/1) Accurately ripped
4 | (1/1) Accurately ripped
5 | (1/1) Accurately ripped
6 | (1/1) Accurately ripped
7 | (1/1) Accurately ripped
8 | (1/1) Accurately ripped
9 | (1/1) Accurately ripped
10 | (1/1) Accurately ripped
11 | (1/1) Accurately ripped
12 | (1/1) Accurately ripped
13 | (1/1) Accurately ripped
14 | (1/1) Accurately ripped
15 | (1/1) Accurately ripped
16 | (1/1) Accurately ripped
17 | (1/1) Accurately ripped
18 | (1/1) Accurately ripped
19 | (1/1) Accurately ripped
20 | (1/1) Accurately ripped
21 | (1/1) Accurately ripped
22 | (1/1) Accurately ripped

==== Контрольная сумма отчёта 3921FAD88ADC5EB822B88D47C2712EBE18233DB7A54CC55659F7C6556C314AB5 ====

------------------------------------------------------------

Exact Audio Copy V1.0 beta 6 from 9. April 2015

Отчёт EAC об извлечении, выполненном 5. июня 2015, 22:05

Unknown Artist / Гульки з медом 10 рокiв

Дисковод: Optiarc DVD RW AD-7561S Adapter: 1 ID: 0

Режим чтения : Достоверность
Использование точного потока : Да
Отключение кэша аудио : Нет
Использование указателей C2 : Да

Коррекция смещения при чтении : 6
Способность читать области Lead-in и Lead-out : Нет
Заполнение пропущенных сэмплов тишиной : Да
Удаление блоков с тишиной в начале и конце : Нет
При вычислениях CRC использовались нулевые сэмплы : Да
Интерфейс : Встроенный Win32-интерфейс для Win NT/2000

Выходной формат : Пользовательский кодировщик
Выбранный битрейт : 1024 kBit/s
Качество : Высокий
Добавление ID3-тега : Нет
Утилита сжатия : C:\Program Files\Exact Audio Copy\FLAC\FLAC.EXE
Дополнительные параметры : -6 -V -T "ARTIST=%artist%" -T "TITLE=%title%" -T "ALBUM=%albumtitle%" -T "DATE=%year%" -T "TRACKNUMBER=%tracknr%" -T "GENRE=%genre%" -T "COMMENT=%comment%" -T "BAND=%albuminterpret%" -T "ALBUMARTIST=%albuminterpret%" -T "COMPOSER=%composer%" %haslyrics%--tag-from-file=LYRICS="%lyricsfile%"%haslyrics% -T "DISCNUMBER=%cdnumber%" -T "TOTALDISCS=%totalcds%" -T "TOTALTRACKS=%numtracks%" %hascover%--picture="%coverfile%"%hascover% %source% -o %dest%

TOC извлечённого CD

Трек | Старт | Длительность | Начальный сектор | Конечный сектор
---------------------------------------------------------------------
1 | 0:00.00 | 3:30.61 | 0 | 15810
2 | 3:30.61 | 4:06.71 | 15811 | 34331
3 | 7:37.57 | 2:20.00 | 34332 | 44831
4 | 9:57.57 | 2:30.69 | 44832 | 56150
5 | 12:28.51 | 3:18.02 | 56151 | 71002
6 | 15:46.53 | 4:14.56 | 71003 | 90108
7 | 20:01.34 | 3:59.49 | 90109 | 108082
8 | 24:01.08 | 3:32.48 | 108083 | 124030
9 | 27:33.56 | 2:58.26 | 124031 | 137406
10 | 30:32.07 | 3:01.28 | 137407 | 151009
11 | 33:33.35 | 2:58.74 | 151010 | 164433
12 | 36:32.34 | 4:46.41 | 164434 | 185924
13 | 41:19.00 | 2:39.21 | 185925 | 197870
14 | 43:58.21 | 2:17.03 | 197871 | 208148
15 | 46:15.24 | 4:08.02 | 208149 | 226750
16 | 50:23.26 | 3:30.38 | 226751 | 242538
17 | 53:53.64 | 2:39.04 | 242539 | 254467
18 | 56:32.68 | 3:30.31 | 254468 | 270248
19 | 60:03.24 | 3:23.27 | 270249 | 285500
20 | 63:26.51 | 2:12.65 | 285501 | 295465
21 | 65:39.41 | 2:30.09 | 295466 | 306724
22 | 68:09.50 | 3:35.37 | 306725 | 322886

Характеристики диапазона извлечения и сообщения об ошибках

Выбранный диапазон

Имя файла C:\Users\User\Music\Unknown Artist - Гульки з медом 10 рокiв.wav

Пиковый уровень 100.0 %
Скорость извлечения 5.5 X
Качество диапазона 100.0 %
CRC теста 842D283D
CRC копии 842D283D
Копирование... OK

Ошибок не произошло

AccurateRip: сводка

Трек 1 отсутствует в базе данных
Трек 2 отсутствует в базе данных
Трек 3 отсутствует в базе данных
Трек 4 отсутствует в базе данных
Трек 5 отсутствует в базе данных
Трек 6 отсутствует в базе данных
Трек 7 отсутствует в базе данных
Трек 8 отсутствует в базе данных
Трек 9 отсутствует в базе данных
Трек 10 отсутствует в базе данных
Трек 11 отсутствует в базе данных
Трек 12 отсутствует в базе данных
Трек 13 отсутствует в базе данных
Трек 14 отсутствует в базе данных
Трек 15 отсутствует в базе данных
Трек 16 отсутствует в базе данных
Трек 17 отсутствует в базе данных
Трек 18 отсутствует в базе данных
Трек 19 отсутствует в базе данных
Трек 20 отсутствует в базе данных
Трек 21 отсутствует в базе данных
Трек 22 отсутствует в базе данных

Ни одного трека нет в базе AccurateRip

Конец отчёта

---- CUETools DB Plugin V2.1.6

[CTDB TOCID: XNJMPSwKRqbEIYHX5Hj0U9_K3SM-] found
Submit result: already submitted
Track | CTDB Status
1 | (1/1) Accurately ripped
2 | (1/1) Accurately ripped
3 | (1/1) Accurately ripped
4 | (1/1) Accurately ripped
5 | (1/1) Accurately ripped
6 | (1/1) Accurately ripped
7 | (1/1) Accurately ripped
8 | (1/1) Accurately ripped
9 | (1/1) Accurately ripped
10 | (1/1) Accurately ripped
11 | (1/1) Accurately ripped
12 | (1/1) Accurately ripped
13 | (1/1) Accurately ripped
14 | (1/1) Accurately ripped
15 | (1/1) Accurately ripped
16 | (1/1) Accurately ripped
17 | (1/1) Accurately ripped
18 | (1/1) Accurately ripped
19 | (1/1) Accurately ripped
20 | (1/1) Accurately ripped
21 | (1/1) Accurately ripped
22 | (1/1) Accurately ripped

==== Контрольная сумма отчёта 2B74E08262EC018762A15506B19387A3DE4E633EDFAC4E7D1AB80FC8A34111E6 ====


Якщо Ви справді бажаєте підтримати українське - після прослуховування, якщо музика вам сподобалась, придбайте ліцензійний диск. Підтримаймо вітчизняних виконавців!


Срібний реліз (на рейтинг впливає 50% завантаженого)
 Трекер:    Зареєстрований   

Завантажити / скачати українську музику



відео для новачків



 Зареєстрований:   2015-06-05 22:27
 Розмір:   510 MB 
 Оцінка музики:   9.5/10 (Голосів: 2)
   
Ваш часовий пояс: GMT + 2 Години

Нова тема   Відповісти