Завантажити та скачати торренти українською


Меггі / Maggie (2015) 720p Ukr/Eng

Нові коментарі

Нова тема   Відповісти
Автор Повідомлення
obrany 
Новенький


З нами з: 07.05.10
Востаннє: 06.08.16
Повідомлень: 24

2015-06-05 08:47  
Меггі / Maggie (2015) 720p Ukr/Eng

Меггі / Maggie (2015) 720p Ukr/Eng


Жанр: драма, трилер, жахи
Країна: США, Швейцарія



Кінокомпанія: Gold Star Films
Режисер: Генрі Хобсон
Актори: Арнольд Шварцнеггер, Ебігейл Бреслін, Джоелі Річардсон

Сюжет:
Історія про дівчинку-підлітка, яка виявляється зараженої в результаті спалаху епідемії і тепер поволі перетворюється на зомбі ...


Тривалість: 01:35:04
Якість:
Відео:
кодек:
розмір кадру: 1280x530
бітрейт: 3937 кб/с

Аудіо # 1:
мова: українська
переклад: двоголосий закадровий - семпл https://yadi.sk/i/t6-bbPx8h6FTw
кодек: 5.1
бітрейт: 448kbps

Аудіо # 2:
мова: англійська
переклад: оригінал
кодек: 5.1
бітрейт: 384kbps

Джерело озвучення:
MediaInfo

Format : Matroska
Format version : Version 4 / Version 2
File size : 3.23 GiB
Duration : 1h 35mn
Overall bit rate : 4 866 Kbps
Movie name : RARBG.COM - Maggie.2015.720p..DD5.1.H264-RARBG
Encoded date : UTC 2015-06-05 14:50:45
Writing application : mkvmerge v7.8.0 ('River Man') 64bit built on Mar 27 2015 16:31:37
Writing library : libebml v1.3.1 + libmatroska v1.4.2
_STATISTICS_WRITING_APP : mkvmerge v7.8.0 ('River Man') 64bit built on Mar 27 2015 16:31:37
_STATISTICS_WRITING_DATE_UTC : 2015-06-05 14:50:45
_STATISTICS_TAGS : BPS DURATION NUMBER_OF_FRAMES NUMBER_OF_BYTES
DURATION : 01:35:03.040000000
NUMBER_OF_FRAMES : 178220
NUMBER_OF_BYTES : 273745920

Video
ID : 1
Format : AVC
Format/Info : Advanced Video Codec
Format profile : [email protected]
Format settings, CABAC : No
Format settings, ReFrames : 2 frames
Codec ID : V_MPEG4/ISO/AVC
Duration : 1h 35mn
Bit rate : 3 937 Kbps
Width : 1 280 pixels
Height : 530 pixels
Display aspect ratio : 2.40:1
Frame rate mode : Constant
Frame rate : 23.976 fps
Color space : YUV
Chroma subsampling : 4:2:0
Bit depth : 8 bits
Scan type : Progressive
Bits/(Pixel*Frame) : 0.242
Stream size : 2.61 GiB (81%)
Title : Maggie.2015.720p..DD5.1.H264-RARBG
Language : English
Default : Yes
Forced : No
Color primaries : BT.709
Transfer characteristics : BT.709
Matrix coefficients : BT.709
Color range : Limited

Audio #1
ID : 2
Format : AC-3
Format/Info : Audio Coding 3
Mode extension : CM (complete main)
Format settings, Endianness : Big
Codec ID : A_AC3
Duration : 1h 35mn
Bit rate mode : Constant
Bit rate : 448 Kbps
Channel(s) : 6 channels
Channel positions : Front: L C R, Side: L R, LFE
Sampling rate : 48.0 KHz
Bit depth : 16 bits
Compression mode : Lossy
Stream size : 305 MiB (9%)
Language : Ukrainian
Default : Yes
Forced : Yes

Audio #2
ID : 3
Format : AC-3
Format/Info : Audio Coding 3
Mode extension : CM (complete main)
Format settings, Endianness : Big
Codec ID : A_AC3
Duration : 1h 35mn
Bit rate mode : Constant
Bit rate : 384 Kbps
Channel(s) : 6 channels
Channel positions : Front: L C R, Side: L R, LFE
Sampling rate : 48.0 KHz
Bit depth : 16 bits
Compression mode : Lossy
Stream size : 261 MiB (8%)
Language : English
Default : No
Forced : No
Скріншоти




Джерело: UkropStudio & LE-Production
Особиста оцінка: 10 - без зайвих вагань рекомендую всім!

Ролі озвучують: Олексій Соловйов і Маргарита Щелкунова
Робота зі звуком: Роман Мирон


Авторський реліз (завантажувати можна без реєстрації)
 Трекер:    Зареєстрований   

Завантажити / скачати фільм українською



відео для новачків



 Зареєстрований:   2015-06-09 12:00
 Розмір:   3.23 GB 
 Оцінка фільму:   9/10 (Голосів: 21)
 оновив
   
Інші релізи
   Меггі / Maggie (2015) obrany  10 / 0   1.56 GB   2015-06-02 10:34 
rs 
Новенький


З нами з: 24.10.11
Востаннє: 04.12.16
Повідомлень: 16

2015-06-05 11:50  
класне озвучення!!))
1009 
Поважний учасник


З нами з: 02.09.14
Востаннє: 04.12.16
Повідомлень: 230

2015-06-09 15:37  
Це клас 720
chuvak_9404 
Поважний учасник


З нами з: 16.08.12
Востаннє: 01.12.16
Повідомлень: 182

2015-06-09 16:33  
Глянув семпл. Подумав, що Ви професійні актори, бо озвучення далеко не погане, але видав (як зазначено в описі) Вас дійсно любительський переклад, не озвучення, а саме переклад.
Ось що мені вухо порізало: "залишившимся часом". А так все добре. Попрацюйте над цим і, гадаю, не за горами Ваше місце у професійних студіях.

Siegfried 
Свій


З нами з: 01.11.11
Востаннє: 04.12.16
Повідомлень: 84

2015-06-11 10:20  
Знову маємо той випадок, коли трейлер значно цікавіший за фільм.
Стрічка дуже млява і нудна. Арні не фальшивить, але він не взмозі сам вдихнути хоч якесь життя в цей мертвонароджений продукт. Хоррору, трилеру чи якоїсь гнітючої атмосфери нема і близько. Навіть для драми стрічка дуже посередня. Думаю, що фільм добре прописувати як снодійне.

4 з 10 лише за Містера Олімпію. Нефанатам Арнольда можна сміло пропускати.

famous37 
Відео Гуртом - фільмокрай
Відео Гуртом - фільмокрай


З нами з: 16.11.08
Востаннє: 04.12.16
Повідомлень: 545

2015-06-16 00:08  
Гарний фільм 9 з 10
Ua.bos_01 
VIP


З нами з: 22.06.15
Востаннє: 03.12.16
Повідомлень: 1290

2015-08-17 09:50  
В цьому фільмі Арні зіграв дуже не звичну роль люблячого батька... Просто потрібно переглянути, щоб зрозуміти. Хороший фільм.
Ваш часовий пояс: GMT + 2 Години

Нова тема   Відповісти