Завантажити та скачати торренти українською


Khors - І ніч схиляється до наших лиць (2015) [FLAC] | Black Metal

Нові коментарі

Нова тема   Відповісти
Автор Повідомлення
Anonymous 







2015-06-04 22:18  
Khors - І ніч схиляється до наших лиць (2015) [FLAC] | Black Metal

Khors - І ніч схиляється до наших лиць (2015) [FLAC] | Black Metal


Стиль: Black Metal
Країна, місто: Україна, Харків
Видавець: Candlelight Records
Виконавці:
Khorus - бас (KZOHH, ex-Astrofaes)
Khaoth - ударні (Balfor, Gods Tower (live), ex-Flying, ex-Tessaract, ex-Apeiron, ex-Hate Forest, ex-Astrofaes
Helg - гітари, голоси (KZOHH, Ulvegr, Ygg, ex-Runes of Dianceht, GreyAblaze, ex-Thunderkraft)
Jurgis - гітари, голоси (Nokturnal Mortum, ex-Faces of Death)
Пісні:
    1. Ні клятв, ні сліз, ні колін!
    2. Долина мертвих птахів
    3. Шляхом кривавих доріг
    4. І ніч схиляється до наших лиць
    5. 1664
    6. Востаннє
    7. Струнке павутиння самотності
    8. Мій козацький шлях

Тривалість: 00:43:41
Мова: українська
Аудіо-кодек: FLAC
Бітрейт: 1033 кб/с
Джерело: ворожий ресурс
Звіт:
Exact Audio Copy V0.99 prebeta 5 from 4. May 2009

EAC extraction logfile from 2. June 2015, 09:08

Khors / Night Falls Onto The Fronts Of Ours

Used drive : ASUS DRW-24B5ST Adapter: 1 ID: 0

Read mode : Secure
Utilize accurate stream : Yes
Defeat audio cache : Yes
Make use of C2 pointers : No

Read offset correction : 6
Overread into Lead-In and Lead-Out : No
Fill up missing offset samples with silence : Yes
Delete leading and trailing silent blocks : No
Null samples used in CRC calculations : Yes
Used interface : Native Win32 interface for Win NT & 2000

Used output format : User Defined Encoder
Selected bitrate : 1024 kBit/s
Quality : High
Add ID3 tag : No
Command line compressor : C:\Program Files\Exact Audio Copy\Flac\flac.exe
Additional command line options : -6 -V %s

TOC of the extracted CD

Track | Start | Length | Start sector | End sector
---------------------------------------------------------
1 | 0:00.00 | 6:47.45 | 0 | 30569
2 | 6:47.45 | 6:03.37 | 30570 | 57831
3 | 12:51.07 | 4:42.31 | 57832 | 79012
4 | 17:33.38 | 2:59.01 | 79013 | 92438
5 | 20:32.39 | 4:41.67 | 92439 | 113580
6 | 25:14.31 | 5:26.26 | 113581 | 138056
7 | 30:40.57 | 5:13.24 | 138057 | 161555
8 | 35:54.06 | 7:46.65 | 161556 | 196570

Range status and errors

Selected range

Filename D:\Torrent\Khors - Night Falls Onto The Fronts Of Ours.wav

Peak level 98.2 %
Range quality 100.0 %
Copy CRC 1D537CB4
Copy OK

No errors occurred

AccurateRip summary

Track 1 not present in database
Track 2 not present in database
Track 3 not present in database
Track 4 not present in database
Track 5 not present in database
Track 6 not present in database
Track 7 not present in database
Track 8 not present in database

None of the tracks are present in the AccurateRip database

End of status report


Срібний реліз (на рейтинг впливає 50% завантаженого)
 Трекер:    Зареєстрований   

Завантажити / скачати українську музику



відео для новачків



 Зареєстрований:   2015-06-04 22:18
 Розмір:   323 MB 
 Оцінка музики:   9.7/10 (Голосів: 7)
   
Interzeroid 
Частий відвідувач


З нами з: 21.02.15
Востаннє: 10.08.15
Повідомлень: 39

2015-06-05 12:07  
Зараз дивлюся відео KHORS - My Cossack Way (Pro-live Video).
Добре звучать хлопці.
Схоже, в Харкові там багацько кльоцьких блек гуртів.

Ваш часовий пояс: GMT + 2 Години

Нова тема   Відповісти