Завантажити та скачати торренти українською


Kingsman: Таємна служба / Kingsman: The Secret Service (2014) 720p-mini

Нові коментарі

Нова тема   Відповісти
Автор Повідомлення
Drool 
VIP


З нами з: 17.04.10
Востаннє: 06.12.16
Повідомлень: 1264

2015-06-01 21:39  
Kingsman: Таємна служба / Kingsman: The Secret Service (2014) 720p-mini

Жанр: екшн, пригодницький, комедія, кримінальний
Країна: Велика Британія



Кінокомпанія: Twentieth Century Fox Film Corporation, Marv Films, TSG Entertainment
Режисер: Метью Вон
Актори: Колін Ферт, Семюель Л. Джексон, Тайрон Еґертон, Софія Бутелла, Майкл Кейн, Марк Стронґ, Марк Геміл, Джек Девенпорт та інші.

Сюжет:
Фільм розповідає про над таємну шпигунську організацію, куди для проходження ультра-спецпідготовки приймають невихованого, але перспективного «вуличного хлопця». Тим часом перед людством постає глобальна загроза, породжена збоченим технічним генієм...


Тривалість: 02:08:44
Якість: 720p-mini
Відео:
кодек:
розмір кадру: 1280х536
бітрейт: 2612 кб/с

Аудіо:
мова: українська
переклад: професійний дубльований
кодек: 5.1
бітрейт: 448 кб/с

Джерело озвучення:


Субтитри:
мова: українська
тип: програмні (м'які, форсовані)
формат: *.srt
Info + MediaInfo
[info]: frame I:1920 Avg QP:16,10 size: 94174
[info]: frame P:41769 Avg QP:19,01 size: 28763
[info]: frame B:141506 Avg QP:21,89 size: 8054
[info]: consecutive B-frames: 3,3% 2,9% 8,9% 20,8% 16,8% 33,5% 6,9% 2,3% 1,5% 0,8% 0,9% 0,6% 0,8%
[info]: mb I I16..4: 8,9% 68,5% 22,6%
[info]: mb P I16..4: 1,0% 10,6% 1,8% P16..4: 29,1% 33,8% 10,8% 2,4% 0,4% skip:10,2%
[info]: mb B I16..4: 0,1% 1,1% 0,2% B16..8: 31,8% 15,0% 2,2% direct: 3,4% skip:46,2% L0:39,5% L1:46,1% BI:14,4%
[info]: 8x8 transform intra:77,0% inter:61,5%
[info]: direct mvs spatial:98,2% temporal:1,8%
[info]: coded y,uvDC,uvAC intra: 88,7% 85,7% 67,5% inter: 14,5% 15,4% 5,1%
[info]: i16 v,h,dc,p: 13% 20% 3% 65%
[info]: i8 v,h,dc,ddl,ddr,vr,hd,vl,hu: 13% 10% 5% 9% 13% 12% 13% 12% 14%
[info]: i4 v,h,dc,ddl,ddr,vr,hd,vl,hu: 13% 11% 4% 8% 14% 13% 13% 10% 12%
[info]: i8c dc,h,v,p: 37% 26% 19% 18%
[info]: Weighted P-Frames: Y:13,4% UV:10,6%
[info]: ref P L0: 59,1% 10,0% 14,1% 6,0% 3,8% 2,5% 1,8% 0,9% 0,7% 0,5% 0,4% 0,1% 0,0%
[info]: ref B L0: 83,9% 9,0% 3,6% 1,3% 0,8% 0,5% 0,4% 0,2% 0,1% 0,1%
[info]: ref B L1: 92,8% 7,2%
[info]: kb/s:2612,02

General
Unique ID : 50365317108144382520576455382004160346 (0x25E401DA54AE5ACFBAEC3E1B8718575A)
Complete name : /mnt/disk_d/Video/Kingsman.The.Secret.Service.2014.Ukr.Dub..720p-mini.UAGet.mkv
Format : Matroska
Format version : Version 2
File size : 2.76 GiB
Duration : 2h 8mn
Overall bit rate : 3 065 Kbps
Writing application : HandBrake rev0
Writing library : libmkv 0.6.5
TITLE : Kingsman: Таємна служба (2014) 720p-mini -=UAGert=-
ARTIST : Колін Ферт, Семюель Л. Джексон, Тайрон Еґертон, Софія Бутелла, Майкл Кейн та ін.
DIRECTOR : Метью Вон
DATE_RELEASED : 2014
GENRE : екшн, пригодницький, комедія, кримінальний
SYNOPSIS : Фільм розповідає про над таємну шпигунську організацію, куди для проходження ультра-спецпідготовки приймають невихованого, але перспективного «вуличного хлопця». Тим часом перед людством постає глобальна загроза, породжена збоченим технічним генієм...

Video
ID : 1
Format : AVC
Format/Info : Advanced Video Codec
Format profile : [email protected]
Format settings, CABAC : Yes
Format settings, ReFrames : 11 frames
Codec ID : V_MPEG4/ISO/AVC
Duration : 2h 8mn
Bit rate : 2 612 Kbps
Width : 1 280 pixels
Height : 536 pixels
Display aspect ratio : 2.40:1
Frame rate mode : Constant
Frame rate : 23.976 fps
Color space : YUV
Chroma subsampling : 4:2:0
Bit depth : 8 bits
Scan type : Progressive
Bits/(Pixel*Frame) : 0.159
Stream size : 2.30 GiB (83%)
Writing library : core 142 r2389 956c8d8
Encoding settings : cabac=1 / ref=12 / deblock=1:-3:-3 / analyse=0x3:0x133 / me=umh / subme=11 / psy=1 / psy_rd=1,10:0,15 / mixed_ref=1 / me_range=64 / chroma_me=1 / trellis=2 / 8x8dct=1 / cqm=0 / deadzone=21,11 / fast_pskip=0 / chroma_qp_offset=-3 / threads=6 / lookahead_threads=1 / sliced_threads=0 / nr=0 / decimate=1 / interlaced=0 / bluray_compat=0 / constrained_intra=0 / bframes=12 / b_pyramid=1 / b_adapt=2 / b_bias=0 / direct=3 / weightb=1 / open_gop=0 / weightp=2 / keyint=240 / keyint_min=24 / scenecut=40 / intra_refresh=0 / rc=2pass / mbtree=0 / bitrate=2612 / ratetol=1,0 / qcomp=1,00 / qpmin=0 / qpmax=69 / qpstep=4 / cplxblur=20,0 / qblur=0,5 / ip_ratio=1,40 / pb_ratio=1,30 / aq=2:0,60
Language : English
Default : Yes
Forced : No
Color primaries : BT.709
Transfer characteristics : BT.709
Matrix coefficients : BT.709

Audio
ID : 2
Format : AC-3
Format/Info : Audio Coding 3
Mode extension : CM (complete main)
Format settings, Endianness : Big
Codec ID : A_AC3
Duration : 2h 8mn
Bit rate mode : Constant
Bit rate : 448 Kbps
Channel(s) : 6 channels
Channel positions : Front: L C R, Side: L R, LFE
Sampling rate : 48.0 KHz
Bit depth : 16 bits
Compression mode : Lossy
Stream size : 413 MiB (15%)
Language : Ukrainian
Default : Yes
Forced : No

Text
ID : 3
Format : UTF-8
Codec ID : S_TEXT/UTF8
Codec ID/Info : UTF-8 Plain Text
Language : Ukrainian
Default : Yes
Forced : No
Світлини






Реліз від:
Особиста оцінка: 8 - мені сподобалося


 Трекер:    Зареєстрований   

Завантажити / скачати фільм українською



відео для новачків



 Зареєстрований:   2015-06-04 07:22
 Розмір:   2.76 GB 
 Оцінка фільму:   9.2/10 (Голосів: 28)
   
bot 
робот


З нами з: 30.09.07
Востаннє: 26.05.05
Повідомлень: 16019

2015-06-01 21:39  
Тему перенесено з Фільми в HD до форуму Анонси релізів


Drool

Drool 
VIP


З нами з: 17.04.10
Востаннє: 06.12.16
Повідомлень: 1264

2015-06-01 21:39  
Орієнтовний розмір - 2,8 гектари.
boroznaya 
VIP


З нами з: 02.11.12
Востаннє: 06.12.16
Повідомлень: 1874

2015-06-02 19:57  
Чудово! Чекаю!!!
Drool 
VIP


З нами з: 17.04.10
Востаннє: 06.12.16
Повідомлень: 1264

2015-06-03 09:07  
boroznaya написано:
Чудово! Чекаю!!!
8 годин на один прохід з двох. Якщо не вимкнеться світло, буде готово вже завтра.
bot 
робот


З нами з: 30.09.07
Востаннє: 26.05.05
Повідомлень: 16019

2015-06-04 07:22  
Тему перенесено з Анонси релізів до форуму Фільми в HD


Drool

bogocity 
Свій


З нами з: 14.03.09
Востаннє: 21.11.16
Повідомлень: 67

2015-06-04 10:05  
Велике Спасибі Wide grin
Drool 
VIP


З нами з: 17.04.10
Востаннє: 06.12.16
Повідомлень: 1264

2015-06-04 10:28  
bogocity написано:
Велике Спасибі
Та будь ласка Wink (1)
S1S 
Свій


З нами з: 10.09.10
Востаннє: 20.11.16
Повідомлень: 53

2015-06-12 17:06  
І дубляж і сам фільм на 10.
boroznaya 
VIP


З нами з: 02.11.12
Востаннє: 06.12.16
Повідомлень: 1874

2015-09-03 15:48  
Спасибі, завантажила.
Ваш часовий пояс: GMT + 2 Години

Нова тема   Відповісти