Завантажити та скачати торренти українською


Львівські Маndри - Пам'яті Друзів (Джаз-рок і не тільки...) (2010) [FLAC] | Jazz-Rock

Нові коментарі

Нова тема   Відповісти
Останній раз роздавалося dihor (2016-12-05)
Автор Повідомлення
Gienek_Lwow 
VIP


З нами з: 28.09.10
Востаннє: 06.12.16
Повідомлень: 541

2015-05-31 17:11  
Львівські Маndри - Пам'яті Друзів (Джаз-рок і не тільки...) (2010) [FLAC] | Jazz-Rock

Львівські Маndри - Пам'яті Друзів (Джаз-рок і не тільки...) (2010) [FLAC] | Jazz-Rock


Стиль: Jazz-Rock, Blues, Funk
Країна, місто: Україна, Львів
Видавець: МД Рекордз (Маркіян Дрібнюк)
Виконавці:
Євген Шелест - труба
Орест Легензевич, Ігор Трух - саксофон
Євген Прокіп - тромбон
Ігор Лесько - ударні
Іван Вощина - перкусія
Орест Смішко - бас
Аркадій Орєхов - клавішні
Орест Жукевич - вокал
Маркіян Дрібнюк - гітара

В концертах також брали участь: Анатолій Шацький - ударні, Іван Огар - бас, Тетяна Буняк - перкусія.
Ведучий концертів Генадій Кройчик

Пісні:
    01. Spinning Wheel
    02. Questions 67 & 68
    03. Saturday in the Park
    04. Someday
    05. Listen
    06. Ditry
    07. You Can Leave Your Hat On
    08. I Wish
    09. Go Down Gamblin'
    10. 25 or 6 to 4

Тривалість: 00:43:19
Мова: англійська
Аудіо-кодек: FLAC
Бітрейт: 944 кб/с
Джерело: диск Саша Михайлів
Додаткова інформація:
Log EAC

Exact Audio Copy V0.99 prebeta 5 from 4. May 2009

EAC extraction logfile from 31. May 2015, 16:40

Львівські Мандри / Пам'яті Друзів

Used drive : TSSTcorpDVD-ROM SH-D162D Adapter: 0 ID: 0

Read mode : Secure
Utilize accurate stream : Yes
Defeat audio cache : Yes
Make use of C2 pointers : No

Read offset correction : 6
Overread into Lead-In and Lead-Out : No
Fill up missing offset samples with silence : Yes
Delete leading and trailing silent blocks : No
Null samples used in CRC calculations : Yes
Used interface : Installed external ASPI interface

Used output format : User Defined Encoder
Selected bitrate : 128 kBit/s
Quality : High
Add ID3 tag : No
Command line compressor : C:\Program Files\Exact Audio Copy\Flac\flac.exe
Additional command line options : -8 -V %s

TOC of the extracted CD

Track | Start | Length | Start sector | End sector
---------------------------------------------------------
1 | 0:00.00 | 3:35.67 | 0 | 16191
2 | 3:35.67 | 4:45.22 | 16192 | 37588
3 | 8:21.14 | 3:59.37 | 37589 | 55550
4 | 12:20.51 | 4:18.22 | 55551 | 74922
5 | 16:38.73 | 3:18.47 | 74923 | 89819
6 | 19:57.45 | 5:29.12 | 89820 | 114506
7 | 25:26.57 | 4:20.07 | 114507 | 134013
8 | 29:46.64 | 4:08.02 | 134014 | 152615
9 | 33:54.66 | 4:27.27 | 152616 | 172667
10 | 38:22.18 | 4:57.07 | 172668 | 194949

Range status and errors

Selected range

Filename C:\Documents and Settings\Евгений Логачев\Рабочий стол\Львівські Мандри - Пам'яті друзів - 2010\Львівські Мандри - Пам'яті Друзів.wav

Peak level 100.0 %
Range quality 100.0 %
Test CRC A3AAE328
Copy CRC A3AAE328
Copy OK

No errors occurred

AccurateRip summary

Track 1 not present in database
Track 2 not present in database
Track 3 not present in database
Track 4 not present in database
Track 5 not present in database
Track 6 not present in database
Track 7 not present in database
Track 8 not present in database
Track 9 not present in database
Track 10 not present in database

None of the tracks are present in the AccurateRip database

End of status report
Spectr

Львівські Маndри - Пам'яті Друзів (Джаз-рок і не тільки...) (2010) [FLAC] | Jazz-Rock


Якщо Ви справді бажаєте підтримати українське - після прослуховування, якщо музика вам сподобалась, придбайте ліцензійний диск. Підтримаймо вітчизняних виконавців!


Срібний реліз (на рейтинг впливає 50% завантаженого)
 Трекер:    Зареєстрований   

Завантажити / скачати українську музику



відео для новачків



 Зареєстрований:   2015-05-31 17:11
 Розмір:   295 MB 
 Оцінка музики:   7.8/10 (Голосів: 4)
   
Gienek_Lwow 
VIP


З нами з: 28.09.10
Востаннє: 06.12.16
Повідомлень: 541

2015-05-31 18:03  
Фанкова композиція 06. Ditry з соло на барабанах від Анатолій Шацьких чого варта...
07. You Can Leave Your Hat On , невмиручий блюз-хіт Джо Кокера, теж на висоті...

gorislavets 
VIP


З нами з: 29.03.11
Востаннє: 28.11.16
Повідомлень: 372

2015-10-01 18:22  
Нічим не гірше, ніж оригінальне виконання "Chicago" та "BST".
Ваш часовий пояс: GMT + 2 Години

Нова тема   Відповісти