Завантажити та скачати торренти українською


Тварина / The Animal (2001) 1080p 2xUkr/Eng | Sub Eng

Нові коментарі

Нова тема   Відповісти
Автор Повідомлення
Anonymous 







2015-05-31 11:06  
Тварина / The Animal (2001) 1080p 2xUkr/Eng | Sub Eng



Жанр: комедія
Країна: США



Кінокомпанія: Revolution Studios, Happy Madison Productions
Режисер: Люк Ґрінфілд / Luke Greenfield
Актори: Роб Шнайдер / Rob Schneider, Коллін Гескелл / Colleen Haskell, Джон К. Маꥳнлі / John C. McGinley, Едвард Еснер / Edward Asner, Майкл Кейтон / Michael Caton, Луїс Ломбарді / Louis Lombardi, Ґай Торрі / Guy Torry, Боб Рубін / Bob Rubin, Пілар Шнайдер / Pilar Schneider, Скотт Уїлсон / Scott Wilson, Реймонд Ма / Raymond Ma, Майкл Пападжон / Michael Papajohn, Рон Роґґе / Ron Roggé, Голлі Мейплс / Holly Maples, Генріетта Мантела / Henriette Mantel, Джеремі Крамер / Jeremy Kramer, Робб Скайлер / Robb Skyler, Філіп Болден / Philip Bolden, Тіммі Дітерс / Timmy Deters, Мітч Голлман / Mitch Holleman, Чарлі Стюарт / Charlie Stewart, Тім Герцоґ / Tim Herzog, Адам Сендлер / Adam Sandler, Фред Столлер / Fred Stoller, Ноель Ґуґлемі / Noel Gugliemi та інші

Сюжет:
Які дивні шляхи ведуть часом до здійснення бажань! Простак Марвін все життя мріяв стати крутим поліцейським, та марно. Але хоч не було щастя, та нещастя помогло: потрапивши в автокатастрофу, герой був врятований від смерті трішки божевільним доктором Вайлдером.

Зіпсовані внутрішні органи Марвіна той замінив на органи різних тварин, завдяки чому його пацієнт не тільки видужав, але й виявив таланти своїх донорів. Використовуючи нові можливості, герой нарешті стає справжнім суперкопом, але... Разом з відмінними рефлексами, силою і витривалістю Марвін одержав від звірів і їх дрімучі інстинкти, які раптово й завжди невчасно проявляються!


Рейтинг MPAA: PG-13 - дітям до 13 років перегляд не бажаний
Вікова категорія: 12+

Тривалість: 01:19:46
Якість: 1080p (Amazon Instant Video)
Відео:
кодек:
розмір кадру: 1920 х 1080
бітрейт: 10000 кбіт/с

Аудіо # 1:
мова: українська
переклад: двоголосий закадровий
ролі озвучили: Андрій Альохін і Наталя Романько-Кисельова?
кодек: 2.0
бітрейт: 192 кбіт/с

Аудіо # 2:
мова: українська
переклад: багатоголосий закадровий
ролі озвучили: Роб Шнайдер — Ярослав Чорненький, Анатолій Пашнін, Джон Маꥳнлі — Володимир Терещук, Наталя Поліщук?
кодек: 2.0
бітрейт: 192 кбіт/с
примітка: ідентична озвучка була також по К1

Аудіо # 3:
мова: англійська
переклад: оригінал
кодек: 5.1
бітрейт: 448 кбіт/с

Субтитри:
мова: англійська
тип: програмні (м'які)
формат: *.srt
MediaInfo
Код:
General
Unique ID                   : 227503685495045943784941170491262759729 (0xAB279DB47DE776019D80DAD01B6BF331)
Complete name               : The Animal (2001) [2xUkr,Eng sub.Eng] 1080p [Hurtom & HDClub].mkv
Format                      : Matroska
Format version              : Version 4 / Version 2
File size                   : 5.94 GiB
Duration                    : 1h 19mn
Overall bit rate            : 10.7 Mbps
Movie name                  : Тварина / The Animal (2001) [2xUkr,Eng sub.Eng] 1080p [Hurtom & HDClub]
Encoded date                : UTC 2015-05-31 07:10:43
Writing application         : mkvmerge v7.9.0 ('Birds') 64bit
Writing library             : libebml v1.3.1 + libmatroska v1.4.2
Attachements                : cover.jpg
DURATION                    : 01:12:32.800000000
NUMBER_OF_FRAMES            : 722
NUMBER_OF_BYTES             : 22004
_STATISTICS_WRITING_APP     : mkvmerge v7.9.0 ('Birds') 64bit
_STATISTICS_WRITING_DATE_UT : 2015-05-31 07:10:43
_STATISTICS_TAGS            : BPS DURATION NUMBER_OF_FRAMES NUMBER_OF_BYTES

Video
ID                          : 1
Format                      : AVC
Format/Info                 : Advanced Video Codec
Format profile              : [email protected]
Format settings, CABAC      : Yes
Format settings, ReFrames   : 4 frames
Codec ID                    : V_MPEG4/ISO/AVC
Duration                    : 1h 19mn
Bit rate mode               : Constant
Bit rate                    : 10 000 Kbps
Width                       : 1 920 pixels
Height                      : 1 080 pixels
Display aspect ratio        : 16:9
Frame rate mode             : Constant
Frame rate                  : 25.000 fps
Standard                    : PAL
Color space                 : YUV
Chroma subsampling          : 4:2:0
Bit depth                   : 8 bits
Scan type                   : Progressive
Bits/(Pixel*Frame)          : 0.193
Stream size                 : 5.36 GiB (90%)
Title                       : Тварина / The Animal / Животное (2001) 1080p (Amazon Prime UK)
Language                    : English
Default                     : Yes
Forced                      : No
Color range                 : Limited
Color primaries             : BT.709
Transfer characteristics    : BT.709
Matrix coefficients         : BT.709

Audio #1
ID                          : 2
Format                      : AC-3
Format/Info                 : Audio Coding 3
Mode extension              : CM (complete main)
Format settings, Endianness : Big
Codec ID                    : A_AC3
Duration                    : 1h 19mn
Bit rate mode               : Constant
Bit rate                    : 192 Kbps
Channel(s)                  : 2 channels
Channel positions           : Front: L R
Sampling rate               : 48.0 KHz
Bit depth                   : 16 bits
Compression mode            : Lossy
Stream size                 : 110 MiB (2%)
Title                       : DVO [Novyj] 2.0 192Kbps [Hurtom-Sando7]
Language                    : Ukrainian
Default                     : Yes
Forced                      : No

Audio #2
ID                          : 3
Format                      : AC-3
Format/Info                 : Audio Coding 3
Mode extension              : CM (complete main)
Format settings, Endianness : Big
Codec ID                    : A_AC3
Duration                    : 1h 19mn
Bit rate mode               : Constant
Bit rate                    : 192 Kbps
Channel(s)                  : 2 channels
Channel positions           : Front: L R
Sampling rate               : 48.0 KHz
Bit depth                   : 16 bits
Compression mode            : Lossy
Stream size                 : 110 MiB (2%)
Title                       : MVO [TET] 2.0 192Kbps [Hurtom-Sando7]
Language                    : Ukrainian
Default                     : No
Forced                      : No

Audio #3
ID                          : 4
Format                      : AC-3
Format/Info                 : Audio Coding 3
Mode extension              : CM (complete main)
Format settings, Endianness : Big
Codec ID                    : A_AC3
Duration                    : 1h 19mn
Bit rate mode               : Constant
Bit rate                    : 448 Kbps
Channel(s)                  : 6 channels
Channel positions           : Front: L C R, Side: L R, LFE
Sampling rate               : 48.0 KHz
Bit depth                   : 16 bits
Compression mode            : Lossy
Stream size                 : 256 MiB (4%)
Title                       : Original 5.1 448kbps
Language                    : English
Default                     : No
Forced                      : No

Text
ID                          : 5
Format                      : UTF-8
Codec ID                    : S_TEXT/UTF8
Codec ID/Info               : UTF-8 Plain Text
Language                    : English
Default                     : No
Forced                      : No

Menu
00:00:00.000                : en:Start
00:02:40.142                : en:The Field Trip
00:04:15.142                : en:Obstacle Course
00:07:31.142                : en:Marvin Meets Rianna
00:09:51.142                : en:Badger Milk
00:10:32.142                : en:"Make It Better"
00:12:38.142                : en:The Accident
00:15:19.142                : en:The Running Man
00:17:32.142                : en:Playing Frisbee
00:18:09.142                : en:Balloon Trick
00:20:27.142                : en:The Press Conference
00:23:21.142                : en:Dr. Wilder
00:24:28.142                : en:"You Were Born Here"
00:28:34.142                : en:"Hey Baby"
00:35:03.142                : en:The Animal Shelter
00:35:41.142                : en:Troule With Control
00:39:29.142                : en:Nelly the Goat
00:48:03.142                : en:Mayor's Charity Event
00:49:05.142                : en:Marvin the Hero
00:55:12.142                : en:A Date With Rianna
00:58:15.142                : en:End of a Perfect Evening
01:02:29.142                : en:Killer Cow Suspect
01:12:26.142                : en:Marvin's Hutch
01:13:44.142                : en:Sisk's Posse




Джерела та подяки: &
українські доріжки - Sando7 - зведення, Sando7, xslim - запис з ТБ; українізований постер - thefir; фільмографії акторів та інформація про озвучення - Віктор (всі - Гуртом).


ЗАЛИШАЙТЕСЬ ЯКОМОГА ДОВШЕ НА РОЗДАЧІ!

СКАЧАВ САМ - ДАЙ СКАЧАТИ ІНШИМ


Срібний реліз (на рейтинг впливає 50% завантаженого)
 Трекер:    Зареєстрований   

Завантажити / скачати фільм українською



відео для новачків



 Зареєстрований:   2015-05-31 11:06
 Розмір:   5.94 GB 
 Оцінка фільму:   3.5/10 (Голосів: 17)
   
Інші релізи
   Тварина / The Animal (2001) 2xUkr/Eng Sando7  4 / 0   1.45 GB   2014-06-04 00:37 
   Тварина / The Animal (2001) urij546724  0 / 0   1.34 GB   2010-11-17 01:08 
Ваш часовий пояс: GMT + 2 Години

Нова тема   Відповісти