Завантажити та скачати торренти українською


VA - Very Best Of Eurovision Song Contest - A 60th Anniversary (2CD) (2015) [FLAC] | Pop

Нові коментарі

Нова тема   Відповісти
Останній раз роздавалося kolpavel (2016-12-07)
Автор Повідомлення
kolpavel 
VIP


З нами з: 04.05.14
Востаннє: 07.12.16
Повідомлень: 1059

2015-05-30 17:48  
VA - Very Best Of Eurovision Song Contest - A 60th Anniversary (2CD) (2015) [FLAC] | Pop

VA - Very Best Of Eurovision Song Contest - A 60th Anniversary (2CD) (2015) [FLAC] | Pop


Стиль: Pop
Сайти: Офіційний сайт
Видавець: Universal Music Austria
Альбоми:
    CD1

    VA - Very Best Of Eurovision Song Contest - A 60th Anniversary (2CD) (2015) [FLAC] | Pop


    01. Refrain - Lys Assia
    02. Nel Blu Dipinto Di Blu (Volare) - Domenico Modugno
    03. Non Ho L'eta - Gigliola Cinquetti
    04. Poupée De Cire, Poupée De Son - France Gall
    05. Merci Cherie - Udo Jürgens
    06. Puppet On A String - Sandie Shaw
    07. Congratulations - Cliff Richard
    08. La, La, La - Massiel
    09. Boom Bang A Bang - Lulu
    10. All Kinds Of Everything - Dana
    11. Beg, Steal Or Borrow - The New Seekers
    12. Après Toi - Vicky Leandros
    13. Si - Gigliola Cinquetti
    14. Waterloo - ABBA
    15. Ding A Dong - Teach In
    16. Save Your Kisses For Me - Brotherhood Of Man
    17. L'oiseau Et L'enfant - Marie Myriam
    18. A-BA-NI-BI - Izhar Cohen & Alpha Beta
    19. Dschinghis Khan - Dschinghis Khan
    20. Hallelujah - Milk & Honey
    21. What's Another Year - Johnny Logan
    22. Making Your Mind Up - Bucks Fizz
    Тривалість: 01:04:30
    Мова: англiйська (6,7,9,11,14-16,21,22), iталiйська (2,3,13), французька (1,4,5,17), iспанська (8), iрландська (10), нiмецька (19), iврiт (18,20).
    EAC:CD1:

    Exact Audio Copy V1.0 beta 6 from 9. April 2015

    EAC extraction logfile from 17. May 2015, 1:18

    Various Artists / The Very Best Of Eurovision Song Contest

    Used drive : PLEXTOR DVDR PX-891SA Adapter: 1 ID: 1

    Read mode : Secure
    Utilize accurate stream : Yes
    Defeat audio cache : Yes
    Make use of C2 pointers : No

    Read offset correction : 6
    Overread into Lead-In and Lead-Out : No
    Fill up missing offset samples with silence : Yes
    Delete leading and trailing silent blocks : No
    Null samples used in CRC calculations : Yes
    Used interface : Native Win32 interface for Win NT & 2000
    Gap handling : Appended to previous track

    Used output format : User Defined Encoder
    Selected bitrate : 1024 kBit/s
    Quality : High
    Add ID3 tag : No
    Command line compressor : C:\Program Files (x86)\Exact Audio Copy\Flac\flac.exe
    Additional command line options : -0 -V -T "ARTIST=%artist%" -T "TITLE=%title%" -T "ALBUM=%albumtitle%" -T "DATE=%year%" -T "TRACKNUMBER=%tracknr%" -T "TOTALTRACKS=%numtracks%" -T "GENRE=%genre%" -T "COMMENT=Naftamusic Release!" %source%

    TOC of the extracted CD

    Track | Start | Length | Start sector | End sector
    ---------------------------------------------------------
    1 | 0:00.00 | 3:10.14 | 0 | 14263
    2 | 3:10.14 | 3:34.29 | 14264 | 30342
    3 | 6:44.43 | 3:14.62 | 30343 | 44954
    4 | 9:59.30 | 2:30.05 | 44955 | 56209
    5 | 12:29.35 | 3:13.65 | 56210 | 70749
    6 | 15:43.25 | 2:20.19 | 70750 | 81268
    7 | 18:03.44 | 2:30.18 | 81269 | 92536
    8 | 20:33.62 | 2:29.53 | 92537 | 103764
    9 | 23:03.40 | 2:19.49 | 103765 | 114238
    10 | 25:23.14 | 2:59.72 | 114239 | 127735
    11 | 28:23.11 | 2:45.44 | 127736 | 140154
    12 | 31:08.55 | 3:36.16 | 140155 | 156370
    13 | 34:44.71 | 3:29.73 | 156371 | 172118
    14 | 38:14.69 | 2:43.38 | 172119 | 184381
    15 | 40:58.32 | 2:24.08 | 184382 | 195189
    16 | 43:22.40 | 3:01.10 | 195190 | 208774
    17 | 46:23.50 | 3:04.26 | 208775 | 222600
    18 | 49:28.01 | 2:57.53 | 222601 | 235928
    19 | 52:25.54 | 3:02.02 | 235929 | 249580
    20 | 55:27.56 | 3:23.19 | 249581 | 264824
    21 | 58:51.00 | 3:01.71 | 264825 | 278470
    22 | 61:52.71 | 2:37.28 | 278471 | 290273

    Track 1

    Filename E:\Nafta Releases\VA - The Very Best Of Eurovision Song Contest - A 60th Anniversary (2 CD 2015)[FLAC] - Naftamusic\CD 1\01 - Lys Assia - Refrain.wav

    Pre-gap length 0:00:02.00

    Peak level 95.9 %
    Extraction speed 1.8 X
    Track quality 100.0 %
    Test CRC 4A164DBC
    Copy CRC 4A164DBC
    Track not present in AccurateRip database
    Copy OK

    Track 2

    Filename E:\Nafta Releases\VA - The Very Best Of Eurovision Song Contest - A 60th Anniversary (2 CD 2015)[FLAC] - Naftamusic\CD 1\02 - Domenico Modugno - Nel Blu Dipinto Di Blu (Volare).wav

    Peak level 93.7 %
    Extraction speed 2.0 X
    Track quality 100.0 %
    Test CRC 49D52497
    Copy CRC 49D52497
    Track not present in AccurateRip database
    Copy OK

    Track 3

    Filename E:\Nafta Releases\VA - The Very Best Of Eurovision Song Contest - A 60th Anniversary (2 CD 2015)[FLAC] - Naftamusic\CD 1\03 - Gigliola Cinquetti - Non Ho L'eta.wav

    Peak level 100.0 %
    Extraction speed 2.2 X
    Track quality 100.0 %
    Test CRC D8929ECA
    Copy CRC D8929ECA
    Track not present in AccurateRip database
    Copy OK

    Track 4

    Filename E:\Nafta Releases\VA - The Very Best Of Eurovision Song Contest - A 60th Anniversary (2 CD 2015)[FLAC] - Naftamusic\CD 1\04 - France Gall - Poupée De Cire, Poupée De Son.wav

    Peak level 88.9 %
    Extraction speed 1.8 X
    Track quality 99.9 %
    Test CRC 7A720EB4
    Copy CRC 7A720EB4
    Track not present in AccurateRip database
    Copy OK

    Track 5

    Filename E:\Nafta Releases\VA - The Very Best Of Eurovision Song Contest - A 60th Anniversary (2 CD 2015)[FLAC] - Naftamusic\CD 1\05 - Udo Jürgens - Merci Cherie.wav

    Peak level 98.8 %
    Extraction speed 2.1 X
    Track quality 99.9 %
    Test CRC 7E968A74
    Copy CRC 7E968A74
    Track not present in AccurateRip database
    Copy OK

    Track 6

    Filename E:\Nafta Releases\VA - The Very Best Of Eurovision Song Contest - A 60th Anniversary (2 CD 2015)[FLAC] - Naftamusic\CD 1\06 - Sandie Shaw - Puppet On A String.wav

    Peak level 88.5 %
    Extraction speed 2.4 X
    Track quality 100.0 %
    Test CRC 4272ECCA
    Copy CRC 4272ECCA
    Track not present in AccurateRip database
    Copy OK

    Track 7

    Filename E:\Nafta Releases\VA - The Very Best Of Eurovision Song Contest - A 60th Anniversary (2 CD 2015)[FLAC] - Naftamusic\CD 1\07 - Cliff Richard - Congratulations.wav

    Peak level 91.7 %
    Extraction speed 2.5 X
    Track quality 100.0 %
    Test CRC 76A5A57A
    Copy CRC 76A5A57A
    Track not present in AccurateRip database
    Copy OK

    Track 8

    Filename E:\Nafta Releases\VA - The Very Best Of Eurovision Song Contest - A 60th Anniversary (2 CD 2015)[FLAC] - Naftamusic\CD 1\08 - Massiel - La, La, La.wav

    Peak level 94.8 %
    Extraction speed 2.2 X
    Track quality 99.9 %
    Test CRC CE7C04F0
    Copy CRC CE7C04F0
    Track not present in AccurateRip database
    Copy OK

    Track 9

    Filename E:\Nafta Releases\VA - The Very Best Of Eurovision Song Contest - A 60th Anniversary (2 CD 2015)[FLAC] - Naftamusic\CD 1\09 - Lulu - Boom Bang A Bang.wav

    Peak level 98.8 %
    Extraction speed 2.6 X
    Track quality 100.0 %
    Test CRC 2DA82587
    Copy CRC 2DA82587
    Track not present in AccurateRip database
    Copy OK

    Track 10

    Filename E:\Nafta Releases\VA - The Very Best Of Eurovision Song Contest - A 60th Anniversary (2 CD 2015)[FLAC] - Naftamusic\CD 1\10 - Dana - All Kinds Of Everything.wav

    Peak level 98.8 %
    Extraction speed 2.8 X
    Track quality 100.0 %
    Test CRC E45070C2
    Copy CRC E45070C2
    Track not present in AccurateRip database
    Copy OK

    Track 11

    Filename E:\Nafta Releases\VA - The Very Best Of Eurovision Song Contest - A 60th Anniversary (2 CD 2015)[FLAC] - Naftamusic\CD 1\11 - The New Seekers - Beg, Steal Or Borrow.wav

    Peak level 98.8 %
    Extraction speed 2.9 X
    Track quality 100.0 %
    Test CRC BBFA4C90
    Copy CRC BBFA4C90
    Track not present in AccurateRip database
    Copy OK

    Track 12

    Filename E:\Nafta Releases\VA - The Very Best Of Eurovision Song Contest - A 60th Anniversary (2 CD 2015)[FLAC] - Naftamusic\CD 1\12 - Vicky Leandros - Après Toi.wav

    Peak level 98.8 %
    Extraction speed 3.1 X
    Track quality 100.0 %
    Test CRC 4008FE86
    Copy CRC 4008FE86
    Track not present in AccurateRip database
    Copy OK

    Track 13

    Filename E:\Nafta Releases\VA - The Very Best Of Eurovision Song Contest - A 60th Anniversary (2 CD 2015)[FLAC] - Naftamusic\CD 1\13 - Gigliola Cinquetti - Si.wav

    Peak level 90.8 %
    Extraction speed 3.2 X
    Track quality 100.0 %
    Test CRC 54CC789F
    Copy CRC 54CC789F
    Track not present in AccurateRip database
    Copy OK

    Track 14

    Filename E:\Nafta Releases\VA - The Very Best Of Eurovision Song Contest - A 60th Anniversary (2 CD 2015)[FLAC] - Naftamusic\CD 1\14 - ABBA - Waterloo.wav

    Peak level 98.8 %
    Extraction speed 3.2 X
    Track quality 100.0 %
    Test CRC CCD160D4
    Copy CRC CCD160D4
    Track not present in AccurateRip database
    Copy OK

    Track 15

    Filename E:\Nafta Releases\VA - The Very Best Of Eurovision Song Contest - A 60th Anniversary (2 CD 2015)[FLAC] - Naftamusic\CD 1\15 - Teach In - Ding A Dong.wav

    Peak level 95.1 %
    Extraction speed 2.7 X
    Track quality 99.9 %
    Test CRC 08B315DE
    Copy CRC 08B315DE
    Track not present in AccurateRip database
    Copy OK

    Track 16

    Filename E:\Nafta Releases\VA - The Very Best Of Eurovision Song Contest - A 60th Anniversary (2 CD 2015)[FLAC] - Naftamusic\CD 1\16 - Brotherhood Of Man - Save Your Kisses For Me.wav

    Peak level 100.0 %
    Extraction speed 3.4 X
    Track quality 100.0 %
    Test CRC 7E06D0F8
    Copy CRC 7E06D0F8
    Track not present in AccurateRip database
    Copy OK

    Track 17

    Filename E:\Nafta Releases\VA - The Very Best Of Eurovision Song Contest - A 60th Anniversary (2 CD 2015)[FLAC] - Naftamusic\CD 1\17 - Marie Myriam - L'oiseau Et L'enfant.wav

    Peak level 87.0 %
    Extraction speed 3.5 X
    Track quality 100.0 %
    Test CRC 0F00BE72
    Copy CRC 0F00BE72
    Track not present in AccurateRip database
    Copy OK

    Track 18

    Filename E:\Nafta Releases\VA - The Very Best Of Eurovision Song Contest - A 60th Anniversary (2 CD 2015)[FLAC] - Naftamusic\CD 1\18 - Izhar Cohen & Alpha Beta - A-BA-NI-BI.wav

    Peak level 93.5 %
    Extraction speed 3.5 X
    Track quality 100.0 %
    Test CRC 173884C5
    Copy CRC 173884C5
    Track not present in AccurateRip database
    Copy OK

    Track 19

    Filename E:\Nafta Releases\VA - The Very Best Of Eurovision Song Contest - A 60th Anniversary (2 CD 2015)[FLAC] - Naftamusic\CD 1\19 - Dschinghis Khan - Dschinghis Khan.wav

    Peak level 98.8 %
    Extraction speed 3.6 X
    Track quality 100.0 %
    Test CRC 4DACE2FB
    Copy CRC 4DACE2FB
    Track not present in AccurateRip database
    Copy OK

    Track 20

    Filename E:\Nafta Releases\VA - The Very Best Of Eurovision Song Contest - A 60th Anniversary (2 CD 2015)[FLAC] - Naftamusic\CD 1\20 - Milk & Honey - Hallelujah.wav

    Peak level 96.2 %
    Extraction speed 3.8 X
    Track quality 100.0 %
    Test CRC C58500F8
    Copy CRC C58500F8
    Track not present in AccurateRip database
    Copy OK

    Track 21

    Filename E:\Nafta Releases\VA - The Very Best Of Eurovision Song Contest - A 60th Anniversary (2 CD 2015)[FLAC] - Naftamusic\CD 1\21 - Johnny Logan - What's Another Year.wav

    Pre-gap length 0:00:00.01

    Peak level 94.7 %
    Extraction speed 3.3 X
    Track quality 99.9 %
    Test CRC ED3F1DF0
    Copy CRC ED3F1DF0
    Track not present in AccurateRip database
    Copy OK

    Track 22

    Filename E:\Nafta Releases\VA - The Very Best Of Eurovision Song Contest - A 60th Anniversary (2 CD 2015)[FLAC] - Naftamusic\CD 1\22 - Bucks Fizz - Making Your Mind Up.wav

    Peak level 98.8 %
    Extraction speed 3.2 X
    Track quality 99.9 %
    Test CRC 5562A5EC
    Copy CRC 5562A5EC
    Track not present in AccurateRip database
    Copy OK

    None of the tracks are present in the AccurateRip database

    No errors occurred

    End of status report

    ==== Log checksum E2E2C807E728856E7F3959BCAFAA022A07F43D89529F83681A0A43B619C4230E ====
    Cue:CD1:
    REM GENRE Pop
    REM DATE 2015
    REM DISCID 330F1E16
    REM COMMENT "ExactAudioCopy v1.0b6"
    PERFORMER "Various Artists"
    TITLE "The Very Best Of Eurovision Song Contest"
    FILE "01 - Lys Assia - Refrain.wav" WAVE
    TRACK 01 AUDIO
    TITLE "Refrain"
    PERFORMER "Lys Assia"
    INDEX 01 00:00:00
    FILE "02 - Domenico Modugno - Nel Blu Dipinto Di Blu (Volare).wav" WAVE
    TRACK 02 AUDIO
    TITLE "Nel Blu Dipinto Di Blu (Volare)"
    PERFORMER "Domenico Modugno"
    INDEX 01 00:00:00
    FILE "03 - Gigliola Cinquetti - Non Ho L'eta.wav" WAVE
    TRACK 03 AUDIO
    TITLE "Non Ho L'eta"
    PERFORMER "Gigliola Cinquetti"
    INDEX 01 00:00:00
    FILE "04 - France Gall - Poupée De Cire, Poupée De Son.wav" WAVE
    TRACK 04 AUDIO
    TITLE "Poupée De Cire, Poupée De Son"
    PERFORMER "France Gall"
    INDEX 01 00:00:00
    FILE "05 - Udo Jürgens - Merci Cherie.wav" WAVE
    TRACK 05 AUDIO
    TITLE "Merci Cherie"
    PERFORMER "Udo Jürgens"
    INDEX 01 00:00:00
    FILE "06 - Sandie Shaw - Puppet On A String.wav" WAVE
    TRACK 06 AUDIO
    TITLE "Puppet On A String"
    PERFORMER "Sandie Shaw"
    INDEX 01 00:00:00
    FILE "07 - Cliff Richard - Congratulations.wav" WAVE
    TRACK 07 AUDIO
    TITLE "Congratulations"
    PERFORMER "Cliff Richard"
    INDEX 01 00:00:00
    FILE "08 - Massiel - La, La, La.wav" WAVE
    TRACK 08 AUDIO
    TITLE "La, La, La"
    PERFORMER "Massiel"
    INDEX 01 00:00:00
    FILE "09 - Lulu - Boom Bang A Bang.wav" WAVE
    TRACK 09 AUDIO
    TITLE "Boom Bang A Bang"
    PERFORMER "Lulu"
    INDEX 01 00:00:00
    FILE "10 - Dana - All Kinds Of Everything.wav" WAVE
    TRACK 10 AUDIO
    TITLE "All Kinds Of Everything"
    PERFORMER "Dana"
    INDEX 01 00:00:00
    FILE "11 - The New Seekers - Beg, Steal Or Borrow.wav" WAVE
    TRACK 11 AUDIO
    TITLE "Beg, Steal Or Borrow"
    PERFORMER "The New Seekers"
    INDEX 01 00:00:00
    FILE "12 - Vicky Leandros - Après Toi.wav" WAVE
    TRACK 12 AUDIO
    TITLE "Après Toi"
    PERFORMER "Vicky Leandros"
    INDEX 01 00:00:00
    FILE "13 - Gigliola Cinquetti - Si.wav" WAVE
    TRACK 13 AUDIO
    TITLE "Si"
    PERFORMER "Gigliola Cinquetti"
    INDEX 01 00:00:00
    FILE "14 - ABBA - Waterloo.wav" WAVE
    TRACK 14 AUDIO
    TITLE "Waterloo"
    PERFORMER "ABBA"
    INDEX 01 00:00:00
    FILE "15 - Teach In - Ding A Dong.wav" WAVE
    TRACK 15 AUDIO
    TITLE "Ding A Dong"
    PERFORMER "Teach In"
    INDEX 01 00:00:00
    FILE "16 - Brotherhood Of Man - Save Your Kisses For Me.wav" WAVE
    TRACK 16 AUDIO
    TITLE "Save Your Kisses For Me"
    PERFORMER "Brotherhood Of Man"
    INDEX 01 00:00:00
    FILE "17 - Marie Myriam - L'oiseau Et L'enfant.wav" WAVE
    TRACK 17 AUDIO
    TITLE "L'oiseau Et L'enfant"
    PERFORMER "Marie Myriam"
    INDEX 01 00:00:00
    FILE "18 - Izhar Cohen & Alpha Beta - A-BA-NI-BI.wav" WAVE
    TRACK 18 AUDIO
    TITLE "A-BA-NI-BI"
    PERFORMER "Izhar Cohen & Alpha Beta"
    INDEX 01 00:00:00
    FILE "19 - Dschinghis Khan - Dschinghis Khan.wav" WAVE
    TRACK 19 AUDIO
    TITLE "Dschinghis Khan"
    PERFORMER "Dschinghis Khan"
    INDEX 01 00:00:00
    FILE "20 - Milk & Honey - Hallelujah.wav" WAVE
    TRACK 20 AUDIO
    TITLE "Hallelujah"
    PERFORMER "Milk & Honey"
    INDEX 01 00:00:00
    TRACK 21 AUDIO
    TITLE "What's Another Year"
    PERFORMER "Johnny Logan"
    INDEX 00 03:23:18
    FILE "21 - Johnny Logan - What's Another Year.wav" WAVE
    INDEX 01 00:00:00
    FILE "22 - Bucks Fizz - Making Your Mind Up.wav" WAVE
    TRACK 22 AUDIO
    TITLE "Making Your Mind Up"
    PERFORMER "Bucks Fizz"
    INDEX 01 00:00:00
    CD2

    VA - Very Best Of Eurovision Song Contest - A 60th Anniversary (2CD) (2015) [FLAC] | Pop


    01. Ein Bisschen Frieden - Nicole
    02. I Treni Di Tozeur - Franco Battiato & Alice
    03. Diggi Loo, Diggi Ley - Herreys
    04. J'aime la Vie - Sandra Kim
    05. Gente Di Mare - Umberto Tozzi & Raf
    06. Hold Me Now - Johnny Logan
    07. Ne Partez Pas Sans Moi - Céline Dion
    08. White And Black Blues - Joëlle Ursull
    09. Insieme 1992 - Toto Cutugno
    10. Le Dernier Qui A Parlé - Amina
    11. Why Me? - Linda Martin
    12. Nocturne - Secret Garden
    13. Love Shine A Light - Katrina & The Waves
    14. Take Me To Your Heaven - Charlotte Nilsson
    15. Fly On The Wings Of Love - Olsen Brothers
    16. Wild Dances - Ruslana
    17. Hard Rock Hallelujah - Lordi
    18. Satellite - Lena
    19. Euphoria - Loreen
    20. Only Teardrops - Emmelie De Forest
    21. Calm After The Storm - The Common Linnets
    22. Rise Like A Phoenix - Conchita Wurst
    Тривалість: 01:10:49
    Мова: англійська (6,11-22), нiмецька (1), iталiйська (2,9), шведська (3), французька (4,8,10).
    EAC:CD1:

    Exact Audio Copy V1.0 beta 6 from 9. April 2015

    EAC extraction logfile from 17. May 2015, 2:33

    Various Artists / The Very Best Of Eurovision Song Contest

    Used drive : PLEXTOR DVDR PX-891SA Adapter: 1 ID: 1

    Read mode : Secure
    Utilize accurate stream : Yes
    Defeat audio cache : Yes
    Make use of C2 pointers : No

    Read offset correction : 6
    Overread into Lead-In and Lead-Out : No
    Fill up missing offset samples with silence : Yes
    Delete leading and trailing silent blocks : No
    Null samples used in CRC calculations : Yes
    Used interface : Native Win32 interface for Win NT & 2000
    Gap handling : Appended to previous track

    Used output format : User Defined Encoder
    Selected bitrate : 1024 kBit/s
    Quality : High
    Add ID3 tag : No
    Command line compressor : C:\Program Files (x86)\Exact Audio Copy\Flac\flac.exe
    Additional command line options : -0 -V -T "ARTIST=%artist%" -T "TITLE=%title%" -T "ALBUM=%albumtitle%" -T "DATE=%year%" -T "TRACKNUMBER=%tracknr%" -T "TOTALTRACKS=%numtracks%" -T "GENRE=%genre%" -T "COMMENT=Naftamusic Release!" %source%

    TOC of the extracted CD

    Track | Start | Length | Start sector | End sector
    ---------------------------------------------------------
    1 | 0:00.24 | 4:28.07 | 24 | 20130
    2 | 4:28.31 | 3:06.72 | 20131 | 34152
    3 | 7:35.28 | 3:05.02 | 34153 | 48029
    4 | 10:40.30 | 3:03.52 | 48030 | 61806
    5 | 13:44.07 | 3:53.44 | 61807 | 79325
    6 | 17:37.51 | 3:01.74 | 79326 | 92974
    7 | 20:39.50 | 3:04.48 | 92975 | 106822
    8 | 23:44.23 | 3:02.12 | 106823 | 120484
    9 | 26:46.35 | 4:23.66 | 120485 | 140275
    10 | 31:10.26 | 3:14.55 | 140276 | 154880
    11 | 34:25.06 | 3:22.66 | 154881 | 170096
    12 | 37:47.72 | 3:10.15 | 170097 | 184361
    13 | 40:58.12 | 2:51.53 | 184362 | 197239
    14 | 43:49.65 | 3:00.14 | 197240 | 210753
    15 | 46:50.04 | 3:00.52 | 210754 | 224305
    16 | 49:50.56 | 3:01.13 | 224306 | 237893
    17 | 52:51.69 | 2:59.39 | 237894 | 251357
    18 | 55:51.33 | 2:53.69 | 251358 | 264401
    19 | 58:45.27 | 2:58.42 | 264402 | 277793
    20 | 61:43.69 | 3:00.31 | 277794 | 291324
    21 | 64:44.25 | 3:03.60 | 291325 | 305109
    22 | 67:48.10 | 3:01.21 | 305110 | 318705

    Track 1

    Filename E:\Nafta Releases\VA - The Very Best Of Eurovision Song Contest - A 60th Anniversary (2 CD 2015)[FLAC] - Naftamusic\CD 2\01 - Nicole - Ein Bisschen Frieden.wav

    Pre-gap length 0:00:02.24

    Peak level 91.1 %
    Extraction speed 2.2 X
    Track quality 100.0 %
    Test CRC 139359C7
    Copy CRC 139359C7
    Track not present in AccurateRip database
    Copy OK

    Track 2

    Filename E:\Nafta Releases\VA - The Very Best Of Eurovision Song Contest - A 60th Anniversary (2 CD 2015)[FLAC] - Naftamusic\CD 2\02 - Franco Battiato & Alice - I Treni Di Tozeur.wav

    Peak level 86.0 %
    Extraction speed 2.2 X
    Track quality 100.0 %
    Test CRC 718F6350
    Copy CRC 718F6350
    Track not present in AccurateRip database
    Copy OK

    Track 3

    Filename E:\Nafta Releases\VA - The Very Best Of Eurovision Song Contest - A 60th Anniversary (2 CD 2015)[FLAC] - Naftamusic\CD 2\03 - Herreys - Diggi Loo, Diggi Ley.wav

    Peak level 92.4 %
    Extraction speed 2.4 X
    Track quality 100.0 %
    Test CRC 099D5BC4
    Copy CRC 099D5BC4
    Track not present in AccurateRip database
    Copy OK

    Track 4

    Filename E:\Nafta Releases\VA - The Very Best Of Eurovision Song Contest - A 60th Anniversary (2 CD 2015)[FLAC] - Naftamusic\CD 2\04 - Sandra Kim - J'aime La Vie.wav

    Peak level 95.8 %
    Extraction speed 2.5 X
    Track quality 100.0 %
    Test CRC C27F462A
    Copy CRC C27F462A
    Track not present in AccurateRip database
    Copy OK

    Track 5

    Filename E:\Nafta Releases\VA - The Very Best Of Eurovision Song Contest - A 60th Anniversary (2 CD 2015)[FLAC] - Naftamusic\CD 2\05 - Umberto Tozzi & Raf - Gente Di Mare.wav

    Peak level 98.8 %
    Extraction speed 2.7 X
    Track quality 100.0 %
    Test CRC 2EFF1D3B
    Copy CRC 2EFF1D3B
    Track not present in AccurateRip database
    Copy OK

    Track 6

    Filename E:\Nafta Releases\VA - The Very Best Of Eurovision Song Contest - A 60th Anniversary (2 CD 2015)[FLAC] - Naftamusic\CD 2\06 - Johnny Logan - Hold Me Now.wav

    Peak level 89.3 %
    Extraction speed 2.8 X
    Track quality 100.0 %
    Test CRC 3E86BF80
    Copy CRC 3E86BF80
    Track not present in AccurateRip database
    Copy OK

    Track 7

    Filename E:\Nafta Releases\VA - The Very Best Of Eurovision Song Contest - A 60th Anniversary (2 CD 2015)[FLAC] - Naftamusic\CD 2\07 - Céline Dion - Ne Partez Pas Sans Moi.wav

    Peak level 98.8 %
    Extraction speed 2.9 X
    Track quality 100.0 %
    Test CRC 756FF553
    Copy CRC 756FF553
    Track not present in AccurateRip database
    Copy OK

    Track 8

    Filename E:\Nafta Releases\VA - The Very Best Of Eurovision Song Contest - A 60th Anniversary (2 CD 2015)[FLAC] - Naftamusic\CD 2\08 - Joëlle Ursull - White And Black Blues.wav

    Peak level 91.4 %
    Extraction speed 3.0 X
    Track quality 100.0 %
    Test CRC 84855FDA
    Copy CRC 84855FDA
    Track not present in AccurateRip database
    Copy OK

    Track 9

    Filename E:\Nafta Releases\VA - The Very Best Of Eurovision Song Contest - A 60th Anniversary (2 CD 2015)[FLAC] - Naftamusic\CD 2\09 - Toto Cutugno - Insieme 1992.wav

    Peak level 98.2 %
    Extraction speed 3.3 X
    Track quality 100.0 %
    Test CRC 24A6BF5E
    Copy CRC 24A6BF5E
    Track not present in AccurateRip database
    Copy OK

    Track 10

    Filename E:\Nafta Releases\VA - The Very Best Of Eurovision Song Contest - A 60th Anniversary (2 CD 2015)[FLAC] - Naftamusic\CD 2\10 - Amina - Le Dernier Qui A Parlé.wav

    Peak level 89.0 %
    Extraction speed 3.3 X
    Track quality 100.0 %
    Test CRC 5CB3CAE5
    Copy CRC 5CB3CAE5
    Track not present in AccurateRip database
    Copy OK

    Track 11

    Filename E:\Nafta Releases\VA - The Very Best Of Eurovision Song Contest - A 60th Anniversary (2 CD 2015)[FLAC] - Naftamusic\CD 2\11 - Linda Martin - Why Me.wav

    Peak level 86.1 %
    Extraction speed 3.3 X
    Track quality 100.0 %
    Test CRC F56AC0FD
    Copy CRC F56AC0FD
    Track not present in AccurateRip database
    Copy OK

    Track 12

    Filename E:\Nafta Releases\VA - The Very Best Of Eurovision Song Contest - A 60th Anniversary (2 CD 2015)[FLAC] - Naftamusic\CD 2\12 - Secret Garden - Nocturne.wav

    Peak level 89.7 %
    Extraction speed 3.0 X
    Track quality 99.9 %
    Test CRC 777C12D4
    Copy CRC 777C12D4
    Track not present in AccurateRip database
    Copy OK

    Track 13

    Filename E:\Nafta Releases\VA - The Very Best Of Eurovision Song Contest - A 60th Anniversary (2 CD 2015)[FLAC] - Naftamusic\CD 2\13 - Katrina & The Waves - Love Shine A Light.wav

    Peak level 85.8 %
    Extraction speed 3.5 X
    Track quality 100.0 %
    Test CRC B7C56DF4
    Copy CRC B7C56DF4
    Track not present in AccurateRip database
    Copy OK

    Track 14

    Filename E:\Nafta Releases\VA - The Very Best Of Eurovision Song Contest - A 60th Anniversary (2 CD 2015)[FLAC] - Naftamusic\CD 2\14 - Charlotte Nilsson - Take Me To Your Heaven.wav

    Peak level 86.5 %
    Extraction speed 3.6 X
    Track quality 100.0 %
    Test CRC 4986FDD9
    Copy CRC 4986FDD9
    Track not present in AccurateRip database
    Copy OK

    Track 15

    Filename E:\Nafta Releases\VA - The Very Best Of Eurovision Song Contest - A 60th Anniversary (2 CD 2015)[FLAC] - Naftamusic\CD 2\15 - Olsen Brothers - Fly On The Wings Of Love.wav

    Peak level 84.1 %
    Extraction speed 3.6 X
    Track quality 100.0 %
    Test CRC DCA2CBB9
    Copy CRC DCA2CBB9
    Track not present in AccurateRip database
    Copy OK

    Track 16

    Filename E:\Nafta Releases\VA - The Very Best Of Eurovision Song Contest - A 60th Anniversary (2 CD 2015)[FLAC] - Naftamusic\CD 2\16 - Ruslana - Wild Dances.wav

    Peak level 87.8 %
    Extraction speed 3.8 X
    Track quality 100.0 %
    Test CRC 3265761D
    Copy CRC 3265761D
    Track not present in AccurateRip database
    Copy OK

    Track 17

    Filename E:\Nafta Releases\VA - The Very Best Of Eurovision Song Contest - A 60th Anniversary (2 CD 2015)[FLAC] - Naftamusic\CD 2\17 - Lordi - Hard Rock Hallelujah.wav

    Peak level 87.6 %
    Extraction speed 3.8 X
    Track quality 100.0 %
    Test CRC 2DB2D7C0
    Copy CRC 2DB2D7C0
    Track not present in AccurateRip database
    Copy OK

    Track 18

    Filename E:\Nafta Releases\VA - The Very Best Of Eurovision Song Contest - A 60th Anniversary (2 CD 2015)[FLAC] - Naftamusic\CD 2\18 - Lena - Satellite.wav

    Peak level 87.9 %
    Extraction speed 3.3 X
    Track quality 99.9 %
    Test CRC 49C2A51F
    Copy CRC 49C2A51F
    Track not present in AccurateRip database
    Copy OK

    Track 19

    Filename E:\Nafta Releases\VA - The Very Best Of Eurovision Song Contest - A 60th Anniversary (2 CD 2015)[FLAC] - Naftamusic\CD 2\19 - Loreen - Euphoria.wav

    Peak level 92.5 %
    Extraction speed 3.9 X
    Track quality 100.0 %
    Test CRC 03FA308F
    Copy CRC 03FA308F
    Track not present in AccurateRip database
    Copy OK

    Track 20

    Filename E:\Nafta Releases\VA - The Very Best Of Eurovision Song Contest - A 60th Anniversary (2 CD 2015)[FLAC] - Naftamusic\CD 2\20 - Emmelie de Forest - Only Teardrops.wav

    Peak level 95.8 %
    Extraction speed 4.1 X
    Track quality 100.0 %
    Test CRC DEC9A41B
    Copy CRC DEC9A41B
    Track not present in AccurateRip database
    Copy OK

    Track 21

    Filename E:\Nafta Releases\VA - The Very Best Of Eurovision Song Contest - A 60th Anniversary (2 CD 2015)[FLAC] - Naftamusic\CD 2\21 - The Common Linnets - Calm After The Storm.wav

    Peak level 98.8 %
    Extraction speed 4.1 X
    Track quality 100.0 %
    Test CRC EE210907
    Copy CRC EE210907
    Track not present in AccurateRip database
    Copy OK

    Track 22

    Filename E:\Nafta Releases\VA - The Very Best Of Eurovision Song Contest - A 60th Anniversary (2 CD 2015)[FLAC] - Naftamusic\CD 2\22 - Conchita Wurst - Rise Like A Phoenix.wav

    Peak level 93.0 %
    Extraction speed 3.6 X
    Track quality 99.9 %
    Test CRC DC16E249
    Copy CRC DC16E249
    Track not present in AccurateRip database
    Copy OK

    None of the tracks are present in the AccurateRip database

    No errors occurred

    End of status report

    ==== Log checksum 1E413B2F33471FEC8C5AE53BD5E770672C0A3219C81E5ACD67CDCC9AD430FE98 ====
    Cue:CD2:

    REM GENRE Pop
    REM DATE 2015
    REM DISCID 3A109916
    REM COMMENT "ExactAudioCopy v1.0b6"
    PERFORMER "Various Artists"
    TITLE "The Very Best Of Eurovision Song Contest"
    FILE "01 - Nicole - Ein Bisschen Frieden.wav" WAVE
    TRACK 01 AUDIO
    TITLE "Ein Bisschen Frieden"
    PERFORMER "Nicole"
    PREGAP 00:00:24
    INDEX 01 00:00:00
    FILE "02 - Franco Battiato & Alice - I Treni Di Tozeur.wav" WAVE
    TRACK 02 AUDIO
    TITLE "I Treni Di Tozeur"
    PERFORMER "Franco Battiato & Alice"
    INDEX 01 00:00:00
    FILE "03 - Herreys - Diggi Loo, Diggi Ley.wav" WAVE
    TRACK 03 AUDIO
    TITLE "Diggi Loo, Diggi Ley"
    PERFORMER "Herreys"
    INDEX 01 00:00:00
    FILE "04 - Sandra Kim - J'aime La Vie.wav" WAVE
    TRACK 04 AUDIO
    TITLE "J'aime La Vie"
    PERFORMER "Sandra Kim"
    INDEX 01 00:00:00
    FILE "05 - Umberto Tozzi & Raf - Gente Di Mare.wav" WAVE
    TRACK 05 AUDIO
    TITLE "Gente Di Mare"
    PERFORMER "Umberto Tozzi & Raf"
    INDEX 01 00:00:00
    FILE "06 - Johnny Logan - Hold Me Now.wav" WAVE
    TRACK 06 AUDIO
    TITLE "Hold Me Now"
    PERFORMER "Johnny Logan"
    INDEX 01 00:00:00
    FILE "07 - Céline Dion - Ne Partez Pas Sans Moi.wav" WAVE
    TRACK 07 AUDIO
    TITLE "Ne Partez Pas Sans Moi"
    PERFORMER "Céline Dion"
    INDEX 01 00:00:00
    FILE "08 - Joëlle Ursull - White And Black Blues.wav" WAVE
    TRACK 08 AUDIO
    TITLE "White And Black Blues"
    PERFORMER "Joëlle Ursull"
    INDEX 01 00:00:00
    FILE "09 - Toto Cutugno - Insieme 1992.wav" WAVE
    TRACK 09 AUDIO
    TITLE "Insieme 1992"
    PERFORMER "Toto Cutugno"
    INDEX 01 00:00:00
    FILE "10 - Amina - Le Dernier Qui A Parlé.wav" WAVE
    TRACK 10 AUDIO
    TITLE "Le Dernier Qui A Parlé"
    PERFORMER "Amina"
    INDEX 01 00:00:00
    FILE "11 - Linda Martin - Why Me.wav" WAVE
    TRACK 11 AUDIO
    TITLE "Why Me?"
    PERFORMER "Linda Martin"
    INDEX 01 00:00:00
    FILE "12 - Secret Garden - Nocturne.wav" WAVE
    TRACK 12 AUDIO
    TITLE "Nocturne"
    PERFORMER "Secret Garden"
    INDEX 01 00:00:00
    FILE "13 - Katrina & The Waves - Love Shine A Light.wav" WAVE
    TRACK 13 AUDIO
    TITLE "Love Shine A Light"
    PERFORMER "Katrina & The Waves"
    INDEX 01 00:00:00
    FILE "14 - Charlotte Nilsson - Take Me To Your Heaven.wav" WAVE
    TRACK 14 AUDIO
    TITLE "Take Me To Your Heaven"
    PERFORMER "Charlotte Nilsson"
    INDEX 01 00:00:00
    FILE "15 - Olsen Brothers - Fly On The Wings Of Love.wav" WAVE
    TRACK 15 AUDIO
    TITLE "Fly On The Wings Of Love"
    PERFORMER "Olsen Brothers"
    INDEX 01 00:00:00
    FILE "16 - Ruslana - Wild Dances.wav" WAVE
    TRACK 16 AUDIO
    TITLE "Wild Dances"
    PERFORMER "Ruslana"
    INDEX 01 00:00:00
    FILE "17 - Lordi - Hard Rock Hallelujah.wav" WAVE
    TRACK 17 AUDIO
    TITLE "Hard Rock Hallelujah"
    PERFORMER "Lordi"
    INDEX 01 00:00:00
    FILE "18 - Lena - Satellite.wav" WAVE
    TRACK 18 AUDIO
    TITLE "Satellite"
    PERFORMER "Lena"
    INDEX 01 00:00:00
    FILE "19 - Loreen - Euphoria.wav" WAVE
    TRACK 19 AUDIO
    TITLE "Euphoria"
    PERFORMER "Loreen"
    INDEX 01 00:00:00
    FILE "20 - Emmelie de Forest - Only Teardrops.wav" WAVE
    TRACK 20 AUDIO
    TITLE "Only Teardrops"
    PERFORMER "Emmelie de Forest"
    INDEX 01 00:00:00
    FILE "21 - The Common Linnets - Calm After The Storm.wav" WAVE
    TRACK 21 AUDIO
    TITLE "Calm After The Storm"
    PERFORMER "The Common Linnets"
    INDEX 01 00:00:00
    FILE "22 - Conchita Wurst - Rise Like A Phoenix.wav" WAVE
    TRACK 22 AUDIO
    TITLE "Rise Like A Phoenix"
    PERFORMER "Conchita Wurst"
    INDEX 01 00:00:00

Тривалість: 02:15:19
Мова: англiйська, iталiйська, французька, iспанська, iрландська, нiмецька, iврiт, шведська.
Аудіо-кодек: FLAC
Бітрейт: 1411 кб/с
Джерело: Інтернет


Срібний реліз (на рейтинг впливає 50% завантаженого)
 Трекер:    Зареєстрований   

Завантажити / скачати українську музику



відео для новачків



 Зареєстрований:   2015-05-30 17:48
 Розмір:   972 MB 
 Оцінка музики:   6.7/10 (Голосів: 6)
   
kolpavel 
VIP


З нами з: 04.05.14
Востаннє: 07.12.16
Повідомлень: 1059

2015-05-30 18:48  
ssTAss 
Модератор музики


З нами з: 05.07.08
Востаннє: 08.12.16
Повідомлень: 10947

2015-05-30 19:05  
kolpavel написано:
Мова: англійська

точно у всіх треках?
не вірю)
прохання виправити і вказати потреково

lpershyi 
Попереджень: 2
Попереджень: 2 


З нами з: 04.01.11
Востаннє: 30.11.16
Повідомлень: 2622

2015-05-30 19:05  
kolpavel написано:
Країна, місто: EU
такої країни не існує, можна було написати достовірну інформацію.
kolpavel написано:
Мова:англiйська
Агов модератори! Якщо дотримуватись (правилa) то потрібно цей реліз видалити без попередження!
ssTAss 
Модератор музики


З нами з: 05.07.08
Востаннє: 08.12.16
Повідомлень: 10947

2015-05-30 19:06  
lpershyi написано:
Агов модератори! Якщо дотримуватись (правилa) то потрібно цей реліз видалити без попередження!

kolpavel написано:
Wild Dances - Ruslana.

kolpavel 
VIP


З нами з: 04.05.14
Востаннє: 07.12.16
Повідомлень: 1059

2015-05-30 19:37  
ssTAss Добре буду просити фахiвцiв-фiлологiв.

Додано через 19 хвилин 59 секунд:

lpershyi i яка буде достовiрна iнформацiя? Подiлiця, будьте ласкавi.

lpershyi 
Попереджень: 2
Попереджень: 2 


З нами з: 04.01.11
Востаннє: 30.11.16
Повідомлень: 2622

2015-05-30 20:30  
kolpavel написано:
Подiлiця
я не викачував збірку іноземномовних пісень виданих не в Україні австрійським лейблом, де на світлинах обкладинки можна побачити видавця, країну тощо. Я не знаю, яка
    Країна, місто:
, але точно знаю, що країни EU не існує.

kolpavel 
VIP


З нами з: 04.05.14
Востаннє: 07.12.16
Повідомлень: 1059

2015-05-30 20:40  
lpershyi, все зрозумiло.
ssTAss 
Модератор музики


З нами з: 05.07.08
Востаннє: 08.12.16
Повідомлень: 10947

2015-05-30 20:49  
kolpavel
бачу, що вже правите мову
в загальній інформації вказуються тільки мови, без треків, а до кожного диску (під спойлером) - потреково

Додано через 2 хвилини 16 секунд:

lpershyi написано:
такої країни не існує, можна було написати достовірну інформацію.

lpershyi
в цьому рядку пишемо звідки виконавець, а не диск
так як виконавці різні, їх багато і кожен з іншої країни, то, думаю, можна закрити на це очі і написати просто - Європа

kolpavel 
VIP


З нами з: 04.05.14
Востаннє: 07.12.16
Повідомлень: 1059

2015-05-30 21:06  
ssTAss, побачив вашi поправки, дякую. В MP3 теж пiдкоректував.
lpershyi 
Попереджень: 2
Попереджень: 2 


З нами з: 04.01.11
Востаннє: 30.11.16
Повідомлень: 2622

2015-05-30 21:48  
ssTAss написано:
в цьому рядку пишемо звідки виконавець, а не диск
Така країна як EU існує? Невже виконавець іноземномовномової пісні номер 16.
kolpavel написано:
Wild Dances - Ruslana.
є з військово-політичного угрупування Європейська унія?
Ваш часовий пояс: GMT + 2 Години

Нова тема   Відповісти