Завантажити та скачати торренти українською


П’ята влада / The Fifth Estate (2013) 720p Ukr/Eng | Sub Eng

Нові коментарі

Нова тема   Відповісти
Автор Повідомлення
Anonymous 







2015-05-24 19:26  
П’ята влада / The Fifth Estate (2013) 720p Ukr/Eng | Sub Eng

П’ята влада / The Fifth Estate (2013) 720p Ukr/Eng | Sub Eng


Жанр: біографічний, драма, трилер
Країна: США, Індія, Бельгія



Кінокомпанія: DreamWorks SKG, Reliance Entertainment, Participant Media
Режисер: Білл Кондон
Актори: Бенедикт Камбербетч, Даніель Брюль, Девід Тьюліс, Алісія Вікандер, Лора Лінні, Стенлі Тучі, Ентоні Макі, Пітер Капальді, Моріц Бляйбтрой, Джеймі Блеклі

Сюжет:
У світі, де інформація цінується понад усе, а витік відомостей під грифом «секретно» може викликати незворотні наслідки, сайт WikiLeaks назавжди змінив правила гри. Фільм, заснований на реальних подіях, розповідає про спробу викрити державну корупцію і брехню влади, яка перетворила інтернет-стартап в одну з найвідоміших і обговорюваних організацій 21-го століття. За перші роки існування WikiLeaks оприлюднив більше таємниць, ніж найвпливовіші у світі ЗМІ разом узяті, розкриваючи ганебні секрети державних служб і фінансові злочини корпорацій. Але коли засновники сайту отримали доступ до найбільшого засекреченого архіву США, їм належало знайти для себе відповідь на одне з найважливіших питань сучасності: яка ціна таємниці у вільному суспільстві - і яка ціна її розголошення?


Тривалість: 02:08:15
Якість:
Відео:
кодек:
розмір кадру: 1280 х 534
бітрейт: 7636 кб/с

Аудіо # 1:
мова: українська
переклад: професійний дубльований
кодек: 2.0
бітрейт: 192 кб/с

Аудіо # 2:
мова: англійська
переклад: оригінал
кодек: 5.1
бітрейт: 1509 кб/с

Джерело озвучення:
MediaInfo
General
Unique ID : 204159748769703998764474003391752036777 (0x9997BCC3962BFDEE8DA81D0744E5E1A9)
Complete name : D:\The Fifth Estate (2013) 720p [Ukr. Eng] [sub Ukr] [Hurtom].mkv
Format : Matroska
Format version : Version 4 / Version 2
File size : 8.53 GiB
Duration : 2h 8mn
Overall bit rate : 9 526 Kbps
Encoded date : UTC 2015-05-24 17:02:30
Writing application : mkvmerge v7.7.0 ('Six Voices') 64bit built on Feb 28 2015 23:39:33
Writing library : libebml v1.3.1 + libmatroska v1.4.2
DURATION : 02:08:15.744000000
NUMBER_OF_FRAMES : 240492
NUMBER_OF_BYTES : 184697856
_STATISTICS_WRITING_APP : mkvmerge v7.7.0 ('Six Voices') 64bit built on Feb 28 2015 23:39:33
_STATISTICS_WRITING_DATE_UT : 2015-05-24 17:02:30
_STATISTICS_TAGS : BPS DURATION NUMBER_OF_FRAMES NUMBER_OF_BYTES

Video
ID : 1
Format : AVC
Format/Info : Advanced Video Codec
Format profile : [email protected]
Format settings, CABAC : Yes
Format settings, ReFrames : 12 frames
Codec ID : V_MPEG4/ISO/AVC
Duration : 2h 8mn
Bit rate : 7 636 Kbps
Width : 1 280 pixels
Height : 534 pixels
Display aspect ratio : 2.40:1
Frame rate mode : Constant
Frame rate : 23.976 fps
Color space : YUV
Chroma subsampling : 4:2:0
Bit depth : 8 bits
Scan type : Progressive
Bits/(Pixel*Frame) : 0.466
Stream size : 6.84 GiB (80%)
Writing library : core 140 r2377 1ca7bb9
Encoding settings : cabac=1 / ref=12 / deblock=1:-3:-3 / analyse=0x3:0x133 / me=tesa / subme=11 / psy=1 / psy_rd=1.05:0.00 / mixed_ref=1 / me_range=16 / chroma_me=1 / trellis=2 / 8x8dct=1 / cqm=0 / deadzone=21,11 / fast_pskip=0 / chroma_qp_offset=-2 / threads=12 / lookahead_threads=3 / sliced_threads=0 / nr=0 / decimate=1 / interlaced=0 / bluray_compat=0 / constrained_intra=0 / bframes=11 / b_pyramid=2 / b_adapt=2 / b_bias=0 / direct=3 / weightb=1 / open_gop=0 / weightp=2 / keyint=250 / keyint_min=23 / scenecut=40 / intra_refresh=0 / rc=crf / mbtree=0 / crf=15.8 / qcomp=0.70 / qpmin=0 / qpmax=69 / qpstep=4 / ip_ratio=1.40 / pb_ratio=1.30 / aq=1:0.90
Language : English
Default : Yes
Forced : No
Matrix coefficients : BT.709
Color range : Limited
DURATION : 02:08:15.688000000
NUMBER_OF_FRAMES : 184512
NUMBER_OF_BYTES : 7525091894
_STATISTICS_WRITING_APP : mkvmerge v7.7.0 ('Six Voices') 64bit built on Feb 28 2015 23:39:33
_STATISTICS_WRITING_DATE_UT : 2015-05-24 17:02:30
_STATISTICS_TAGS : BPS DURATION NUMBER_OF_FRAMES NUMBER_OF_BYTES

Audio #1
ID : 2
Format : AC-3
Format/Info : Audio Coding 3
Mode extension : CM (complete main)
Format settings, Endianness : Big
Codec ID : A_AC3
Duration : 2h 8mn
Bit rate mode : Constant
Bit rate : 192 Kbps
Channel(s) : 2 channels
Channel positions : Front: L R
Sampling rate : 48.0 KHz
Bit depth : 16 bits
Compression mode : Lossy
Stream size : 176 MiB (2%)
Language : Ukrainian
Default : Yes
Forced : No

Audio #2
ID : 3
Format :
Format/Info : Digital Theater Systems
Mode : 16
Format settings, Endianness : Big
Codec ID : A_DTS
Duration : 2h 8mn
Bit rate mode : Constant
Bit rate : 1 509 Kbps
Channel(s) : 6 channels
Channel positions : Front: L C R, Side: L R, LFE
Sampling rate : 48.0 KHz
Bit depth : 24 bits
Compression mode : Lossy
Delay relative to video : 11ms
Stream size : 1.35 GiB (16%)
Language : English
Default : No
Forced : No

Text
ID : 4
Format : UTF-8
Codec ID : S_TEXT/UTF8
Codec ID/Info : UTF-8 Plain Text
Language : English
Default : No
Forced : No

Menu
00:00:00.000 : en:00:00:00.000
00:05:53.144 : en:00:05:53.144
00:12:18.446 : en:00:12:18.446
00:19:35.007 : en:00:19:35.007
00:26:17.993 : en:00:26:17.993
00:34:17.472 : en:00:34:17.472
00:40:31.720 : en:00:40:31.720
00:46:53.852 : en:00:46:53.852
00:54:58.336 : en:00:54:58.336
01:01:29.852 : en:01:01:29.852
01:06:38.119 : en:01:06:38.119
01:14:39.266 : en:01:14:39.266
01:20:30.951 : en:01:20:30.951
01:32:05.978 : en:01:32:05.978
01:39:26.085 : en:01:39:26.085
01:47:48.670 : en:01:47:48.670
01:56:02.622 : en:01:56:02.622
02:02:54.909 : en:02:02:54.909


Подяка за доріжку панм OlegCena, Gelios.
Джерело:


 Трекер:    Зареєстрований   

Завантажити / скачати фільм українською



відео для новачків



 Зареєстрований:   2015-05-24 19:26
 Розмір:   8.53 GB 
 Оцінка фільму:   7.1/10 (Голосів: 11)
   
Інші релізи
   П’ята влада / The Fifth Estate (2013) Gelios  8 / 0   1.45 GB   2015-05-24 16:59 
   П’ята влада / The Fifth Estate (2013) AVC Gelios  11 / 0   1.56 GB   2015-05-24 16:59 
Сонцеслав 
VIP


З нами з: 26.01.11
Востаннє: 21.11.16
Повідомлень: 385

2015-05-25 12:58  
Цитата:
масована пропагандистська атака проти організації WikiLeaks

Соломон Кейн 
Забанено
Забанено


З нами з: 14.03.15
Востаннє: 18.11.16
Повідомлень: 485

2015-05-25 20:41  
Зробіть, будь ласка, звичайну BD-Rip версію фільму в .avi форматі із озвученням нового каналу. Дякую.
Gelios 
Відео Гуртом - дизайнер
Відео Гуртом - дизайнер


З нами з: 03.09.11
Востаннє: 04.12.16
Повідомлень: 1881

2015-05-25 20:45  
Соломон Кейн
А пошуком скористатись чи в інші релізи подивитись?

Ваш часовий пояс: GMT + 2 Години

Нова тема   Відповісти