Завантажити та скачати торренти українською


VA - Украинские народные песни (Ukrainian folk songs) (1910-1940 рр) (2000) [APE] | Folk

Нові коментарі

Нова тема   Відповісти
Автор Повідомлення
kolpavel 
VIP


З нами з: 04.05.14
Востаннє: 07.12.16
Повідомлень: 1059

2015-05-23 22:26  
VA - Украинские народные песни (Ukrainian folk songs) (1910-1940 рр) (2000) [APE] | Folk

VA - Украинские народные песни (Ukrainian folk songs) (1910-1940 рр) (2000) [APE] | Folk


Стиль: Folk
Країна: Україна
Видавець: Бомба Мьюзик
Пісні:
    01. Бандура 2:53 // І. Паторжинський, секстет домр п/к М. Некрасова
    02. Гопак 2:31 // А. Шалаєв и М. Крилов, баяни
    03. Спать мені не хочеться 2:13 // О. Петрусенко, анс. п/а Я. Йориша
    04. Садок вишневий коло хати 2:49 // Н. Захарченко, фортепіано - Р. Єльтова
    05. Гандзя 1:57 // О. Петрусенко, анс. п/к Я. Йориша
    06. Ой, куди йдеш, Явтуше? 3:05 // М.Д. Михайлов, А. Мохова
    07. Ой, вишенько, черешенько 2:33 // хор села Лужки київської області
    08. Дивлюсь я на небо 2:51 // А. Іванов, анс. нар. инструмент. п/к М. Некрасова
    09. Туман хвилями лягає 3:16 // капела "Думка" п/к Н. Городовенка
    10. Ой, вітер віє 2:35 // колгоспниці села Каменка
    11. Веснянка, Перепілочка 3:04 // капела "Думка" п/к Н. Городовенка
    12. Солоха 2:05 // О. Петрусенко
    13. Сонце низенько 2:25 // І. Козловський
    14. Журавель 2:16 // капела бандуристов п/к М.М. Михайлова
    15. Де ти бродишь, моя доле 3:17 // О. Коробейченко, М. Гришко
    16. Коли розлучаются двоє 2:49 // С. Хромченко, К. Лаптев
    17. Розпрягайте, хлопці, коней 2:34 // капела "Думка" п/к Н. Городовенка
    18. Галя 2:40 // самодіяльний ансамбль села Старосільці київської области
    19. Ревуть, стогнуть гори-хвилі 3:14 // капела бандуристів п/к М.М. Михайлова
    20. Взяв би я бандуру 2:55 // І. Паторжинський, Держ. капела бандуристів УРСР під кер. М. М. Михайлова
    21. Повий, витре, на Вкраину 3:12 // О. Коробейченко
    22. Трепак 2:33 // Держ. капела бандуристів УРСР під кер. М. М. Михайлова 1935
    23. Коло броду брала дивка воду 2:43 // М. Литвиненко-Вольгемут, капела бандуристів п/к М. Михайлова
    24. Стелися, барвиночку, низенько 1:40 // капела "Думка" п/к Н. Городовенка
    25. Верховино моя 1:50 // Закарпатський народний хор
log
Exact Audio Copy V0.99 prebeta 4 from 23. January 2008

Отчёт EAC об извлечении, выполненном 30. мая 2009, 9:57

Various / Украинские народные песни

Дисковод: ASUS DRW-20B1LT Adapter: 0 ID: 0

Режим чтения : Достоверность
Использование точного потока : Да
Отключение кэша аудио : Да
Использование указателей C2 : Нет

Коррекция смещения при чтении : 6
Способность читать области Lead-in и Lead-out : Нет
Заполнение пропущенных сэмплов тишиной : Да
Удаление блоков с тишиной в начале и конце : Нет
При вычислениях CRC использовались нулевые сэмплы : Да
Интерфейс : Установленный внешний ASPI-интерфейс

Выходной формат : Внутренние WAV-операции
Формат сэмплов : 44.100 Гц; 16 бит; стерео

TOC извлечённого CD

Трек | Старт | Длительность | Начальный сектор | Конечный сектор
---------------------------------------------------------------------
1 | 0:00.00 | 2:56.49 | 0 | 13248
2 | 2:56.49 | 2:35.41 | 13249 | 24914
3 | 5:32.15 | 2:18.15 | 24915 | 35279
4 | 7:50.30 | 2:52.36 | 35280 | 48215
5 | 10:42.66 | 2:01.59 | 48216 | 57349
6 | 12:44.50 | 3:09.33 | 57350 | 71557
7 | 15:54.08 | 2:38.03 | 71558 | 83410
8 | 18:32.11 | 2:55.37 | 83411 | 96572
9 | 21:27.48 | 3:20.60 | 96573 | 111632
10 | 24:48.33 | 2:38.25 | 111633 | 123507
11 | 27:26.58 | 3:08.67 | 123508 | 137674
12 | 30:35.50 | 2:09.09 | 137675 | 147358
13 | 32:44.59 | 2:29.59 | 147359 | 158592
14 | 35:14.43 | 2:21.11 | 158593 | 169178
15 | 37:35.54 | 3:22.05 | 169179 | 184333
16 | 40:57.59 | 2:53.25 | 184334 | 197333
17 | 43:51.09 | 2:38.30 | 197334 | 209213
18 | 46:29.39 | 2:44.21 | 209214 | 221534
19 | 49:13.60 | 3:18.42 | 221535 | 236426
20 | 52:32.27 | 2:59.54 | 236427 | 249905
21 | 55:32.06 | 3:16.68 | 249906 | 264673
22 | 58:48.74 | 2:37.14 | 264674 | 276462
23 | 61:26.13 | 2:47.29 | 276463 | 289016
24 | 64:13.42 | 1:44.31 | 289017 | 296847
25 | 65:57.73 | 1:50.52 | 296848 | 305149

Характеристики диапазона извлечения и сообщения об ошибках

Выбранный диапазон

Имя файла D:\черновики\Украинские народные песни\Украинские народные песни.wav

Пиковый уровень 89.1 %
Качество диапазона 99.9 %
CRC копии 5042586F
Копирование... OK

Ошибок не произошло

AccurateRip: сводка

Трек 1 нет в базе данных
Трек 2 нет в базе данных
Трек 3 нет в базе данных
Трек 4 нет в базе данных
Трек 5 нет в базе данных
Трек 6 нет в базе данных
Трек 7 нет в базе данных
Трек 8 нет в базе данных
Трек 9 нет в базе данных
Трек 10 нет в базе данных
Трек 11 нет в базе данных
Трек 12 нет в базе данных
Трек 13 нет в базе данных
Трек 14 нет в базе данных
Трек 15 нет в базе данных
Трек 16 нет в базе данных
Трек 17 нет в базе данных
Трек 18 нет в базе данных
Трек 19 нет в базе данных
Трек 20 нет в базе данных
Трек 21 нет в базе данных
Трек 22 нет в базе данных
Трек 23 нет в базе данных
Трек 24 нет в базе данных
Трек 25 нет в базе данных

Ни одного трека нет в базе AccurateRip

Конец отчёта
Тривалість: 01:07:49
Мова: українська, (2) - мова відсутня.
Аудіо-кодек: APE
Бітрейт: 980 кб/с
Джерело: Інтернет
Додаткова інформація:
Фонограми 1910-1940 рр . з приватних зібрань. У назвах творів збережена орфографія оригінальних видань.


Якщо Ви справді бажаєте підтримати українське - після прослуховування, якщо музика вам сподобалась, придбайте ліцензійний диск. Підтримаймо вітчизняних виконавців!


Срібний реліз (на рейтинг впливає 50% завантаженого)
 Трекер:    Зареєстрований   

Завантажити / скачати українську музику



відео для новачків



 Зареєстрований:   2015-05-23 22:26
 Розмір:   130 MB 
 Оцінка музики:   8.5/10 (Голосів: 12)
   
kolpavel 
VIP


З нами з: 04.05.14
Востаннє: 07.12.16
Повідомлень: 1059

2015-05-23 22:46  
Тут можна багато обговорювати трекліст, орфографiю, обкладинку і т.д.. Але головне тут пісні і музика.
Gienek_Lwow 
VIP


З нами з: 28.09.10
Востаннє: 07.12.16
Повідомлень: 541

2015-05-23 23:01  
kolpavel написано:
AV- Українські народні пісні....


Таки певно VA, т.т. різні виконавці

kolpavel 
VIP


З нами з: 04.05.14
Востаннє: 07.12.16
Повідомлень: 1059

2015-05-23 23:06  
Gienek_Lwow, то вже мене глюче.
Форкуш 
VIP


З нами з: 03.02.10
Востаннє: 07.12.16
Повідомлень: 1538

2015-05-24 23:29  
Зробіть хтось мп3)))
kolpavel 
VIP


З нами з: 04.05.14
Востаннє: 07.12.16
Повідомлень: 1059

2015-05-25 20:38  
ssTAss 
Модератор музики


З нами з: 05.07.08
Востаннє: 07.12.16
Повідомлень: 10947

2015-05-25 21:34  
kolpavel написано:
Тривалість: 01:11:47

хм, в мене в плеєрі показує 01:07:49
kolpavel написано:
Мова: українська

2 трек - мова відсутня, прошу вказати
якість
fooCDtect
fooCDtect - foobar2000 + auCDtect, baralgin.

auCDtect: CD records authenticity detector, version 0.8.2
Copyright (c) 2004 Oleg Berngardt. All rights reserved.
Copyright (c) 2004 Alexander Djourik. All rights reserved.

mode: 0

===========================================
Track: 01 - Бандура
Quality: MPEG 90%
===========================================
Track: 02 - Гопак
Quality: MPEG 93%
===========================================
Track: 03 - Спать мени не хочеться
Quality: CDDA 43%
===========================================
Track: 04 - Садок вишневый коло хаты
Quality: MPEG 80%
===========================================
Track: 05 - Гандзя
Quality: CDDA 49%
===========================================
Track: 06 - Ой, куды идешь, Явтуша
Quality: CDDA 62%
===========================================
Track: 07 - Ой, вишенко, черешенко
Quality: CDDA 54%
===========================================
Track: 08 - Дивлюсь я на небо
Quality: CDDA 76%
===========================================
Track: 09 - Туман хвилями лягае
Quality: MPEG 89%
===========================================
Track: 10 - Ой, витер вие
Quality: CDDA 42%
===========================================
Track: 11 - Веснянка, Перепилочка
Quality: CDDA 58%
===========================================
Track: 12 - Солоха
Quality: CDDA 100%
===========================================
Track: 13 - Солнце низенько
Quality: MPEG 99%
===========================================
Track: 14 - Журавель
Quality: MPEG 99%
===========================================
Track: 15 - Де ты бродишь, моя доле
Quality: CDDA 43%
===========================================
Track: 16 - Когда разлучаются двое
Quality: MPEG 93%
===========================================
Track: 17 - Разпрягайте, хлопцы, конив
Quality: MPEG 100%
===========================================
Track: 18 - Галя
Quality: MPEG 93%
===========================================
Track: 19 - Ревуть, стогнуть горы-хвили
Quality: CDDA 54%
===========================================
Track: 20 - Взыв бы я бандуру
Quality: MPEG 89%
===========================================
Track: 21 - Повий, витре, на Вкраину
Quality: MPEG 90%
===========================================
Track: 22 - Трепак
Quality: CDDA 43%
===========================================
Track: 23 - Коло броду брала дивка воду
Quality: MPEG 100%
===========================================
Track: 24 - Стелися, барвиночку, низенько
Quality: CDDA 99%
===========================================
Track: 25 - Верховино моя
Quality: CDDA 100%
===========================================

kolpavel 
VIP


З нами з: 04.05.14
Востаннє: 07.12.16
Повідомлень: 1059

2015-05-25 22:11  
ssTAss, а тут http://видалено - 01:06:15.
ssTAss 
Модератор музики


З нами з: 05.07.08
Востаннє: 07.12.16
Повідомлень: 10947

2015-05-25 23:13  
kolpavel написано:
ssTAss, а тут 01:06:15.

та що там мене цікавлять інші ресурси
як у Вас в плеєрі показує? в мене в фубарі 01:07:49

Додано через 14 хвилин 6 секунд:

kolpavel написано:
25 | 65:57.73 | 1:50.52 | 296848 | 305149

все ж таки 01:07:49
згідно звіту еак-у останній трек починається на 01:05:58 і сам триває 00:01:51 (мілісекунди заукруглюються)

kolpavel 
VIP


З нами з: 04.05.14
Востаннє: 07.12.16
Повідомлень: 1059

2015-05-26 00:00  
I в мене в плеєрі показує 01:07:49. А в треклистi конверта до альбома сумарно 01:06:00. В описi до диска, зовсiм iнше. Показав нейтральний сайт. За що получив бан. Кому вiрити? А в загалi, як скажете так i буде. Для мене це істотного значення не має - це аудiофiльськi болячки.
ssTAss 
Модератор музики


З нами з: 05.07.08
Востаннє: 07.12.16
Повідомлень: 10947

2015-05-26 00:03  
kolpavel написано:
За що получив бан

ніякого бану, це просто попередження на 1 день
читайте уважно правила і не давайте посилання на сторонні ресурси

Додано через 1 хвилину 1 секунду:

kolpavel написано:
Для мене це істотного значення не має - це аудiофiльськi болячки.

треба вказувати реальну тривалість, а не ту, яку хтось десь написав
і це не тільки до тривалості стосується, а й до всього іншого

Ваш часовий пояс: GMT + 2 Години

Нова тема   Відповісти