Завантажити та скачати торренти українською


Олександр Пономарьов | Дискографія [6 альбомів, 1 збірка] (1996-2007) [APE] | Pop

Нові коментарі

Нова тема   Відповісти
Сторінка:  1, 2  наступна
Автор Повідомлення
plyrvt 
VIP


З нами з: 03.12.08
Востаннє: 03.12.16
Повідомлень: 398

2009-07-27 12:27  
Олександр Пономарьов | Дискографія [6 альбомів, 1 збірка] (1996-2007) [APE] | Pop



Стиль: Pop
Країна, місто: Україна, Хмельницький-Київ
Сайти: Офіційний сайт
Студія: "З ранку до ночі" рекордз
Видавець: Атлантік (2004), Artur music (2006, 2007)
Альбоми:
1996 - З ранку до ночi (2006 Artur Music)


01 - З ранку до ночi - 4:24
02 - Вiдкриваю очi - 4:27
03 - Сiрооке кохання - 3:48
04 - Тiльки раз цвiте любов - 3:56
05 - Реквiем - 5:34
06 - 198 000 раз - 4:01
07 - Вогонь - 4:40
08 - Казочка - 2:54
09 - Романс - 3:22
10 - Зiронька - 4:11

Тривалість: 00:41:17
Видавець: Artur Music 2006
EAC Log
Exact Audio Copy V0.99 prebeta 5 from 4. May 2009

EAC extraction logfile from 25. May 2011, 19:18

Олександр Пономарьов / З ранку до ночi

Used drive : ASUS DRW-24B3ST Adapter: 5 ID: 0

Read mode : Secure
Utilize accurate stream : Yes
Defeat audio cache : Yes
Make use of C2 pointers : No

Read offset correction : 6
Overread into Lead-In and Lead-Out : No
Fill up missing offset samples with silence : Yes
Delete leading and trailing silent blocks : No
Null samples used in CRC calculations : Yes
Used interface : Installed external ASPI interface

Used output format : User Defined Encoder
Selected bitrate : 768 kBit/s
Quality : High
Add ID3 tag : No
Command line compressor : C:\Program Files\Exact Audio Copy\Flac\flac.exe
Additional command line options : -8 -V -T "ARTIST=%a" -T "TITLE=%t" -T "ALBUM=%g" -T "DATE=%y" -T "TRACKNUMBER=%n" -T "GENRE=%m" -T "COMMENT=%e" %s -o %d

TOC of the extracted CD

Track | Start | Length | Start sector | End sector
---------------------------------------------------------
1 | 0:00.00 | 4:24.36 | 0 | 19835
2 | 4:24.36 | 4:26.52 | 19836 | 39837
3 | 8:51.13 | 3:48.04 | 39838 | 56941
4 | 12:39.17 | 3:55.64 | 56942 | 74630
5 | 16:35.06 | 5:33.49 | 74631 | 99654
6 | 22:08.55 | 4:00.39 | 99655 | 117693
7 | 26:09.19 | 4:40.27 | 117694 | 138720
8 | 30:49.46 | 2:54.02 | 138721 | 151772
9 | 33:43.48 | 3:22.19 | 151773 | 166941
10 | 37:05.67 | 4:10.73 | 166942 | 185764

Range status and errors

Selected range

Filename E:\1EAC Rip\Олександр Пономарьов - З ранку до ночі (1996)\Олександр Пономарьов - З ранку до ночi.wav

Peak level 98.8 %
Range quality 99.9 %
Test CRC 90136507
Copy CRC 90136507
Copy OK

No errors occurred

AccurateRip summary

Track 1 not present in database
Track 2 not present in database
Track 3 not present in database
Track 4 not present in database
Track 5 not present in database
Track 6 not present in database
Track 7 not present in database
Track 8 not present in database
Track 9 not present in database
Track 10 not present in database

None of the tracks are present in the AccurateRip database

End of status report
Audiochecker Log
AUDIOCHECKER v2.0 beta (build 457) - by Dester - [email protected]
~~~~~~~~~~~~~~~~~~~~~~~~~~~~~~~~~~
-=== DO NOT EDIT THIS FILE! ===-

Path: ...\1996 - З ранку до ночi

01 -=- 01 - З ранку до ночi.wav -=- MPEG (95%)
02 -=- 02 - Вiдкриваю очi.wav -=- MPEG (95%)
03 -=- 03 - Сiрооке кохання.wav -=- CDDA (99%)
04 -=- 04 - Тiльки раз цвiте любов.wav -=- MPEG (95%)
05 -=- 05 - Реквiем.wav -=- MPEG (95%)
06 -=- 06 - 198 000 раз.wav -=- CDDA (100%)
07 -=- 07 - Вогонь.wav -=- MPEG (95%)
08 -=- 08 - Казочка.wav -=- CDDA (100%)
09 -=- 09 - Романс.wav -=- MPEG (95%)
10 -=- 10 - Зiронька.wav -=- MPEG (95%)

Summary 33,40% CDDA

185115636
1998 - Перша і остання любов (2006 Artur music)


01 - Серденько - 3:37
02 - Перша і остання любов - 3:32
03 - А я піду - 2:54
04 - Белый кадиллак - 4:19
05 - Знову і знову - 3:55
06 - Для неї... - 3:14
07 - Молитва - 3:21
08 - На схід - 4:14
09 - Зіронька (remix) - 3:47
10 - Голоси - 6:16

Тривалість: 00:39:10
українська (01-03, 05-06, 08-10), російська (04, 07)
EAC Log
Exact Audio Copy V0.99 prebeta 5 from 4. May 2009

EAC extraction logfile from 27. July 2009, 11:25

Олександр Пономарьов / Перша і остання любов

Used drive : HL-DT-STDVDRAM GSA-H10N Adapter: 0 ID: 1

Read mode : Secure
Utilize accurate stream : Yes
Defeat audio cache : Yes
Make use of C2 pointers : No

Read offset correction : 667
Overread into Lead-In and Lead-Out : No
Fill up missing offset samples with silence : Yes
Delete leading and trailing silent blocks : No
Null samples used in CRC calculations : Yes
Used interface : Native Win32 interface for Win NT & 2000

Used output format : Monkey's Audio Lossless Encoder v3.99 DLL
Sample format : High Lossless Compression

TOC of the extracted CD

Track | Start | Length | Start sector | End sector
---------------------------------------------------------
1 | 0:00.00 | 3:37.29 | 0 | 16303
2 | 3:37.29 | 3:32.21 | 16304 | 32224
3 | 7:09.50 | 2:54.36 | 32225 | 45310
4 | 10:04.11 | 4:18.64 | 45311 | 64724
5 | 14:23.00 | 3:55.14 | 64725 | 82363
6 | 18:18.14 | 3:14.06 | 82364 | 96919
7 | 21:32.20 | 3:20.50 | 96920 | 111969
8 | 24:52.70 | 4:14.35 | 111970 | 131054
9 | 29:07.30 | 3:46.45 | 131055 | 148049
10 | 32:54.00 | 6:15.42 | 148050 | 176216

Range status and errors

Selected range

Filename E:\Music3\Ukrainian\П\Пономарьов Олександр\1998 - Перша і остання любов\1998 - Перша і остання любов.ape

Peak level 98.8 %
Range quality 100.0 %
Test CRC B0D634B5
Copy CRC B0D634B5
Copy OK

No errors occurred

AccurateRip summary

Track 1 not present in database
Track 2 not present in database
Track 3 not present in database
Track 4 not present in database
Track 5 not present in database
Track 6 not present in database
Track 7 not present in database
Track 8 not present in database
Track 9 not present in database
Track 10 not present in database

None of the tracks are present in the AccurateRip database

End of status report
Audiochecker Log
AUDIOCHECKER v2.0 beta (build 457) - by Dester - [email protected]
~~~~~~~~~~~~~~~~~~~~~~~~~~~~~~~~~~
-=== DO NOT EDIT THIS FILE! ===-

Path: ...\1998 - Перша і остання любов

01 -=- 01 - Перша і остання любов.wav -=- CDDA (100%)
02 -=- 02 - Знову і знову.wav -=- CDDA (100%)
03 -=- 03 - Белый кадиллак.wav -=- CDDA (100%)
04 -=- 04 - На схід.wav -=- CDDA (100%)
05 -=- 05 - Зіронька (remix).wav -=- CDDA (100%)
06 -=- 06 - Серденько.wav -=- CDDA (100%)
07 -=- 07 - А я піду.wav -=- CDDA (100%)
08 -=- 08 - Для неї.wav -=- CDDA (100%)
09 -=- 09 - Молитва.wav -=- CDDA (99%)
10 -=- 10 - Голоси.wav -=- CDDA (100%)

Summary 99,90% CDDA

9611172
2000 - Вона (2006 Artur music)


01 - Грім - 3:23
02 - Чомусь так гірко плакала вона - 6:01
03 - Guantanamera - 5:07
04 - Ти моя - 3:50
05 - Заколишу - 4:53
06 - Єдина - 5:05
07 - Я знаю - 3:50
08 - Ніжними вустами - 4:37
09 - Святая Анна - 3:10
10 - Любове - 6:14
11 - Попурі - 4:21
12 - Ти моя (дует з Н. Могилевською) - 3:49

Тривалість: 00:54:20
українська (01-02, 04-08, 10-12), російська (09), іспанська (03)
Data CD

Якість:
кодек: MPEG1 (VCD)
розмір кадру: 352x288 (4:3) 25.00 fps
бітрейт: 1150 кбіт/с

Аудіо:
мова: українська
кодек: MPEG1 Audio 44100 Hz stereo
бітрейт: 224 кбіт/сек

1_n_vustam.mpg Тривалість: 00:04:40

2_chomu_.mpg Тривалість: 00:05:53

3_ty_moja.mpg Тривалість: 00:03:47

4_pono_mog.mpg Тривалість: 00:03:44
EAC Log
EAC extraction logfile from 8. February 2008, 22:44 for CD
Олександр Пономарьов / Вона

Used drive : HL-DT-STCD-RW GCE-8525B Adapter: 2 ID: 1
Read mode : Secure with NO C2, accurate stream, disable cache
Read offset correction : 6
Overread into Lead-In and Lead-Out : No

Used output format : Internal WAV Routines
44.100 Hz; 16 Bit; Stereo

Other options :
Fill up missing offset samples with silence : Yes
Delete leading and trailing silent blocks : No
Installed external ASPI interface

Range status and errors
Selected range
Filename E:\Virtual CD's\Олександр Пономарьов - Вона.wav

Peak level 99.3 %
Range quality 100.0 %
CRC 66EA24C9
Copy OK

No errors occured

End of status report
Audiochecker Log
AUDIOCHECKER v2.0 beta (build 457) - by Dester - [email protected]
~~~~~~~~~~~~~~~~~~~~~~~~~~~~~~~~~~
-=== DO NOT EDIT THIS FILE! ===-

Path: ...\2000 - Вона

01 -=- 01 - Грім.wav -=- CDDA (100%)
02 -=- 02 - Чомусь так гірко плакала вона.wav -=- CDDA (99%)
03 -=- 03 - Guantanamera.wav -=- MPEG (95%)
04 -=- 04 - Ти моя.wav -=- CDDA (100%)
05 -=- 05 - Заколишу.wav -=- MPEG (89%)
06 -=- 06 - Єдина.wav -=- CDDA (100%)
07 -=- 07 - Я знаю.wav -=- MPEG (100%)
08 -=- 08 - Ніжними вустами.wav -=- MPEG (95%)
09 -=- 09 - Святая Анна.wav -=- CDDA (99%)
10 -=- 10 - Любове.wav -=- CDDA (100%)
11 -=- 11 - Попурі.wav -=- MPEG (95%)
12 -=- 12 - Ти моя (дует з Н. Могилевською).wav -=- CDDA (99%)

Summary 60,25% CDDA

191352324
2001 - Він (2006 Artur music)


01 - Він чекає на неї - 3:28
02 - Деталі - 4:05
03 - Дорога - 4:01
04 - Минає день - 4:59
05 - Зіркою - 5:04
06 - Човен - 4:27
07 - Крила - 3:49
08 - Мила - 3:06
09 - Тільки з тобою - 3:36
10 - Засинай - 3:46
11 - Вогонь - 3:14

Тривалість: 00:43:35
Data CD

Якість:
кодек: DivX 3 (1-3), DivX 5 (4-5)

Аудіо: мова: українська
кодек: MP3

1_Vin.avi (Тривалість: 00:03:28, розмір кадру: 360x232, бітрейт відео 645 кбіт/сек, аудіо: 48000Hz mono 64 кбіт/с)


2_Den.avi (Тривалість: 00:04:55, розмір кадру: 360x288, бітрейт відео 534 кбіт/сек, аудіо: 48000Hz mono 64 кбіт/с)


3_Kryla.avi (Тривалість: 00:03:44, розмір кадру: 512x384, бітрейт відео 2160 кбіт/сек, аудіо: 44100Hz stereo 224 кбіт/с)


4_Choven.avi (Тривалість: 00:04:25, розмір кадру: 512x384, бітрейт відео 2098 кбіт/сек, аудіо: 44100Hz stereo 224 кбіт/с)


5_Vogon'.avi (Тривалість: 00:03:11, розмір кадру: 512x384, бітрейт відео 2157 кбіт/сек, аудіо: 44100Hz stereo 224 кбіт/с)
EAC Log
Exact Audio Copy V0.99 prebeta 5 from 4. May 2009

EAC extraction logfile from 22. July 2009, 15:20

Олександр Пономарьов / Він

Used drive : HL-DT-STDVDRAM GSA-H10N Adapter: 0 ID: 1

Read mode : Secure
Utilize accurate stream : Yes
Defeat audio cache : Yes
Make use of C2 pointers : No

Read offset correction : 667
Overread into Lead-In and Lead-Out : No
Fill up missing offset samples with silence : Yes
Delete leading and trailing silent blocks : No
Null samples used in CRC calculations : Yes
Used interface : Native Win32 interface for Win NT & 2000

Used output format : Monkey's Audio Lossless Encoder v3.99 DLL
Sample format : High Lossless Compression

TOC of the extracted CD

Track | Start | Length | Start sector | End sector
---------------------------------------------------------
1 | 0:00.00 | 3:28.32 | 0 | 15631
2 | 3:28.32 | 4:04.58 | 15632 | 33989
3 | 7:33.15 | 4:00.65 | 33990 | 52054
4 | 11:34.05 | 4:59.32 | 52055 | 74511
5 | 16:33.37 | 5:03.45 | 74512 | 97281
6 | 21:37.07 | 4:26.38 | 97282 | 117269
7 | 26:03.45 | 3:48.74 | 117270 | 134443
8 | 29:52.44 | 3:06.27 | 134444 | 148420
9 | 32:58.71 | 3:35.73 | 148421 | 164618
10 | 36:34.69 | 3:46.35 | 164619 | 181603
11 | 40:21.29 | 3:13.72 | 181604 | 196150
12 | 46:07.26 | 27:08.65 | 207551 | 329715

Range status and errors

Selected range

Filename E:\Music3\Ukrainian\П\Пономарьов Олександр\2001 - Він\2001 - Він.ape

Peak level 100.0 %
Range quality 99.9 %
Test CRC EBEB884B
Copy CRC EBEB884B
Copy OK

No errors occurred

AccurateRip summary

Track 1 not present in database
Track 2 not present in database
Track 3 not present in database
Track 4 not present in database
Track 5 not present in database
Track 6 not present in database
Track 7 not present in database
Track 8 not present in database
Track 9 not present in database
Track 10 not present in database
Track 11 not present in database

None of the tracks are present in the AccurateRip database

End of status report
Audiochecker Log
AUDIOCHECKER v2.0 beta (build 457) - by Dester - [email protected]
~~~~~~~~~~~~~~~~~~~~~~~~~~~~~~~~~~
-=== DO NOT EDIT THIS FILE! ===-

Path: ...\2001 - Він

01 -=- 01 - Він чекає на неї.wav -=- CDDA (100%)
02 -=- 02 - Деталі.wav -=- CDDA (100%)
03 -=- 03 - Дорога.wav -=- CDDA (100%)
04 -=- 04 - Минає день.wav -=- CDDA (100%)
05 -=- 05 - Зіркою.wav -=- CDDA (100%)
06 -=- 06 - Човен.wav -=- CDDA (100%)
07 -=- 07 - Крила.wav -=- CDDA (99%)
08 -=- 08 - Мила.wav -=- CDDA (100%)
09 -=- 09 - Тільки з тобою.wav -=- CDDA (99%)
10 -=- 10 - Засинай.wav -=- CDDA (99%)
11 -=- 11 - Вогонь.wav -=- CDDA (100%)

Summary 99,73% CDDA

251467460
2004 - Краще


01 - З ранку до ночі - 4:24
02 - Тільки раз цвіте любов - 3:56
03 - 198000 раз - 4:01
04 - Зіронька - 4:12
05 - Перша і остання любов - 3:37
06 - А я піду - 3:10
07 - Грім - 3:23
08 - Чомусь так гірко плакала вона - 6:01
09 - Quantanamera - 5:07
10 - Ти моя - 3:51
11 - Єдина - 5:05
12 - Я знаю - 3:50
13 - Ніжними вустами - 4:38
14 - Човен - 4:27
15 - Крила - 3:49
16 - Він чекає на неї - 3:27

Тривалість: 01:06:57
українська (01-08, 10-16), іспанська (09)
EAC Log
Exact Audio Copy V0.99 prebeta 5 from 4. May 2009

EAC extraction logfile from 27. July 2009, 12:03

Олександр Пономарьов / Краще

Used drive : HL-DT-STDVDRAM GSA-H10N Adapter: 0 ID: 1

Read mode : Secure
Utilize accurate stream : Yes
Defeat audio cache : Yes
Make use of C2 pointers : No

Read offset correction : 667
Overread into Lead-In and Lead-Out : No
Fill up missing offset samples with silence : Yes
Delete leading and trailing silent blocks : No
Null samples used in CRC calculations : Yes
Used interface : Native Win32 interface for Win NT & 2000

Used output format : Monkey's Audio Lossless Encoder v3.99 DLL
Sample format : High Lossless Compression

TOC of the extracted CD

Track | Start | Length | Start sector | End sector
---------------------------------------------------------
1 | 0:00.00 | 4:24.34 | 0 | 19833
2 | 4:24.34 | 3:55.64 | 19834 | 37522
3 | 8:20.23 | 4:00.39 | 37523 | 55561
4 | 12:20.62 | 4:12.13 | 55562 | 74474
5 | 16:33.00 | 3:37.19 | 74475 | 90768
6 | 20:10.19 | 3:09.52 | 90769 | 104995
7 | 23:19.71 | 3:23.02 | 104996 | 120222
8 | 26:42.73 | 6:00.70 | 120223 | 147292
9 | 32:43.68 | 5:07.18 | 147293 | 170335
10 | 37:51.11 | 3:50.38 | 170336 | 187623
11 | 41:41.49 | 5:05.13 | 187624 | 210511
12 | 46:46.62 | 3:49.42 | 210512 | 227728
13 | 50:36.29 | 4:37.43 | 227729 | 248546
14 | 55:13.72 | 4:26.47 | 248547 | 268543
15 | 59:40.44 | 3:49.07 | 268544 | 285725
16 | 63:29.51 | 3:27.22 | 285726 | 301272

Range status and errors

Selected range

Filename E:\Music3\Ukrainian\П\Пономарьов Олександр\2004 - Краще\2004 - Краще.ape

Peak level 97.7 %
Range quality 100.0 %
Test CRC 615FC544
Copy CRC 615FC544
Copy OK

No errors occurred

AccurateRip summary

Track 1 not present in database
Track 2 not present in database
Track 3 not present in database
Track 4 not present in database
Track 5 not present in database
Track 6 not present in database
Track 7 not present in database
Track 8 not present in database
Track 9 not present in database
Track 10 not present in database
Track 11 not present in database
Track 12 not present in database
Track 13 not present in database
Track 14 not present in database
Track 15 not present in database
Track 16 not present in database

None of the tracks are present in the AccurateRip database

End of status report
AccurateRip

2004 - Краще.cue:

Checking AccurateRip database

Track Ripping Status [Disc ID: 0026ecb6-ca0fb010]

1 Accurately Ripped (confidence 1) [b2cfff58]
2 Accurately Ripped (confidence 1) [f9df2ee3]
3 Accurately Ripped (confidence 1) [20c7fdec]
4 Accurately Ripped (confidence 1) [b30982e6]
5 Accurately Ripped (confidence 1) [1a238506]
6 Accurately Ripped (confidence 1) [2738a4be]
7 Accurately Ripped (confidence 1) [cccb758a]
8 Accurately Ripped (confidence 1) [b9a525d9]
9 Accurately Ripped (confidence 1) [d1af44da]
10 Accurately Ripped (confidence 1) [cf0cbec5]
11 Accurately Ripped (confidence 1) [566a6a53]
12 Accurately Ripped (confidence 1) [e309ba8d]
13 Accurately Ripped (confidence 1) [e8692022]
14 Accurately Ripped (confidence 1) [1821a9d7]
15 Accurately Ripped (confidence 1) [d2d575f1]
16 Accurately Ripped (confidence 1) [32ff5863]

_______________________

All Tracks Accurately Ripped.
Audiochecker Log
AUDIOCHECKER v2.0 beta (build 457) - by Dester - [email protected]
~~~~~~~~~~~~~~~~~~~~~~~~~~~~~~~~~~
-=== DO NOT EDIT THIS FILE! ===-

Path: ...\2004 - Краще

01 -=- 01 - З ранку до ночі.wav -=- CDDA (49%)
02 -=- 02 - Тільки раз цвіте любов.wav -=- MPEG (91%)
03 -=- 03 - 198000 раз.wav -=- MPEG (90%)
04 -=- 04 - Зіронька.wav -=- MPEG (92%)
05 -=- 05 - Перша і остання любов.wav -=- CDDA (100%)
06 -=- 06 - А я піду.wav -=- CDDA (100%)
07 -=- 07 - Грім.wav -=- CDDA (100%)
08 -=- 08 - Чомусь так гірко плакала вона.wav -=- CDDA (99%)
09 -=- 09 - Quantanamera.wav -=- CDDA (58%)
10 -=- 10 - Ти моя.wav -=- CDDA (99%)
11 -=- 11 - Єдина.wav -=- CDDA (100%)
12 -=- 12 - Я знаю.wav -=- MPEG (90%)
13 -=- 13 - Ніжними вустами.wav -=- CDDA (92%)
14 -=- 14 - Човен.wav -=- CDDA (100%)
15 -=- 15 - Крила.wav -=- CDDA (100%)
16 -=- 16 - Він чекає на неї.wav -=- CDDA (100%)

Summary 70,88% CDDA

138168452
2006 - Я люблю тільки тебе (2006 Artur music)


01 - Я люблю тільки тебе - 3:56
02 - Серце - 3:59
03 - Я за твою любов - 1:50
04 - Спи собі сама - 3:37
05 - Я заблукав - 3:40
06 - Три поради - 4:24
07 - Разом назавжди - 3:46
08 - Країна - 3:25
09 - Серденько (remix) - 3:51
10 - Грім (remix) - 3:25
11 - Я за твою любов (remix) - 2:58
12 - Я люблю тільки тебе (remix) - 3:52

Тривалість: 00:42:41
EAC Log
EAC extraction logfile from 5. June 2006, 20:28 for CD
Oleksandr Ponomarev / Ya Lublu Tilky Tebe

Used drive : PLEXTOR DVDR PX-716A Adapter: 0 ID: 1
Read mode : Secure with NO C2, accurate stream, disable cache
Combined read/write offset correction : 0
Overread into Lead-In and Lead-Out : No

Used output format : Internal WAV Routines
44.100 Hz; 16 Bit; Stereo

Other options :
Fill up missing offset samples with silence : Yes
Delete leading and trailing silent blocks : No
Native Win32 interface for Win NT & 2000

Range status and errors
Selected range
Filename I:\Oleksandr Ponomarev - Ya Lublu Tilky Tebe.wav

Peak level 100.0 %
Range quality 100.0 %
CRC B5C38697
Copy OK

No errors occured

End of status report
Audiochecker Log
AUDIOCHECKER v2.0 beta (build 457) - by Dester - [email protected]
~~~~~~~~~~~~~~~~~~~~~~~~~~~~~~~~~~
-=== DO NOT EDIT THIS FILE! ===-

Path: ...\2006 - Я люблю тільки тебе

01 -=- 01 - Я люблю тільки тебе.wav -=- CDDA (100%)
02 -=- 02 - Серце.wav -=- CDDA (100%)
03 -=- 03 - Я за твою любов.wav -=- CDDA (100%)
04 -=- 04 - Спи собі сама.wav -=- CDDA (100%)
05 -=- 05 - Я заблукав.wav -=- CDDA (99%)
06 -=- 06 - Три поради.wav -=- CDDA (100%)
07 -=- 07 - Разом назавжди.wav -=- CDDA (100%)
08 -=- 08 - Країна.wav -=- CDDA (99%)
09 -=- 09 - Серденько (remix).wav -=- CDDA (100%)
10 -=- 10 - Грім (remix).wav -=- CDDA (100%)
11 -=- 11 - Я за твою любов (remix).wav -=- MPEG (95%)
12 -=- 12 - Я люблю тільки тебе (remix).wav -=- CDDA (100%)

Summary 91,92% CDDA

4496308
2007 - Ніченькою


01 - А ти просто кохай - 3:36
02 - Ти дочекайся мене - 3:54
03 - Ніченькою темною - 4:02
04 - Пілігрім - 3:06
05 - Я не такий - 3:51
06 - Весільна пісня - 4:17
07 - Я твій Дід Мороз! - 3:10
08 - Марія - 4:26
09 - Volare - 3:24
10 - З ранку до ночі (new version) - 4:28
11 - А ти просто кохай (remix) - 3:14
12 - Саундтрек до фільму 'Мій Принц' - 3:21

Тривалість: 00:44:50
українська (01-08, 10-12), італійська (09)
Data CD

Nichen'koyu.avi
Video: DivX 5 512x384 25.00fps [Stream 00]
Audio: PCM 44100Hz stereo 1411Kbps [Stream 01]

Tu Dochecaysa mene.avi
Video: DivX 5 512x384 25.00fps [Stream 00]
Audio: MPEG Audio Layer 3 48000Hz stereo 192Kbps [Stream 01]


Ya TviyDid Moroz.avi
Video: DivX 5 512x384 25.00fps [00) VTS_02_1_PC.avi Видео #1]
Audio: PCM 48000Hz stereo 1536Kbps [Stream 01]
EAC Log
Exact Audio Copy V0.99 prebeta 5 from 4. May 2009

EAC extraction logfile from 22. July 2009, 14:56

Олександр Пономарьов / Ніченькою

Used drive : HL-DT-STDVDRAM GSA-H10N Adapter: 0 ID: 1

Read mode : Secure
Utilize accurate stream : Yes
Defeat audio cache : Yes
Make use of C2 pointers : No

Read offset correction : 667
Overread into Lead-In and Lead-Out : No
Fill up missing offset samples with silence : Yes
Delete leading and trailing silent blocks : No
Null samples used in CRC calculations : Yes
Used interface : Native Win32 interface for Win NT & 2000

Used output format : Monkey's Audio Lossless Encoder v3.99 DLL
Sample format : High Lossless Compression

TOC of the extracted CD

Track | Start | Length | Start sector | End sector
---------------------------------------------------------
1 | 0:00.00 | 3:36.23 | 0 | 16222
2 | 3:36.23 | 3:53.61 | 16223 | 33758
3 | 7:30.09 | 4:02.31 | 33759 | 51939
4 | 11:32.40 | 3:06.36 | 51940 | 65925
5 | 14:39.01 | 3:50.55 | 65926 | 83230
6 | 18:29.56 | 4:17.17 | 83231 | 102522
7 | 22:46.73 | 3:10.33 | 102523 | 116805
8 | 25:57.31 | 4:26.12 | 116806 | 136767
9 | 30:23.43 | 3:24.00 | 136768 | 152067
10 | 33:47.43 | 4:27.60 | 152068 | 172152
11 | 38:15.28 | 3:14.14 | 172153 | 186716
12 | 41:29.42 | 3:20.61 | 186717 | 201777
13 | 47:22.28 | 22:16.22 | 213178 | 313399

Range status and errors

Selected range

Filename E:\Music3\Ukrainian\П\Пономарьов Олександр\2007 - Нiченькою\2007 - Ніченькою.ape

Peak level 99.9 %
Range quality 100.0 %
Test CRC 13AF7CD7
Copy CRC 13AF7CD7
Copy OK

No errors occurred

AccurateRip summary

Track 1 not present in database
Track 2 not present in database
Track 3 not present in database
Track 4 not present in database
Track 5 not present in database
Track 6 not present in database
Track 7 not present in database
Track 8 not present in database
Track 9 not present in database
Track 10 not present in database
Track 11 not present in database
Track 12 not present in database

None of the tracks are present in the AccurateRip database

End of status report
Audiochecker Log
AUDIOCHECKER v2.0 beta (build 457) - by Dester - [email protected]
~~~~~~~~~~~~~~~~~~~~~~~~~~~~~~~~~~
-=== DO NOT EDIT THIS FILE! ===-

Path: ...\2007 - Нiченькою

01 -=- 01 - А ти просто кохай.wav -=- CDDA (100%)
02 -=- 02 - Ти дочекайся мене.wav -=- CDDA (99%)
03 -=- 03 - Ніченькою темною.wav -=- CDDA (99%)
04 -=- 04 - Пілігрім.wav -=- CDDA (100%)
05 -=- 05 - Я не такий.wav -=- CDDA (100%)
06 -=- 06 - Весільна пісня.wav -=- CDDA (100%)
07 -=- 07 - Я твій Дід Мороз!.wav -=- CDDA (100%)
08 -=- 08 - Марія.wav -=- CDDA (100%)
09 -=- 09 - Volare.wav -=- CDDA (100%)
10 -=- 10 - З ранку до ночі (new version).wav -=- CDDA (100%)
11 -=- 11 - А ти просто кохай (remix).wav -=- CDDA (100%)
12 -=- 12 - Саундтрек до фільму 'Мій Принц'.wav -=- CDDA (100%)

Summary 99,83% CDDA

68209412
Тривалість: 05:32:51
Мова: українська, російська (2 треки), іспанська (1 трек), італійська (1 трек)
Аудіо-кодек: APE, FLAC (1996)
Ріп: image+*.cue (EAC Log, audiochecker log)
EAC: Secure + Accurate stream + disable cache/C2 + Read offset correction
Бітрейт: lossless (~852-924 кбіт/сек)
Джерело: власний ріп (2, 4, 5, 7) (3, 6), kievman2 (1)
Додаткова інформація:
Список найбільш обдарованих співаків, на думку українців, одноосібно має очолювати Олександр Пономарьов. Рейтинг найталановитіших співаків України було укладено за результатами телефонного опитування «Першої рейтингової системи» у п’яти великих містах держави.

Олександр Пономарьов заручився підтримкою п’ятої частини всіх опитаних, значно відірвавшись від конкурентів. На другому місці Святослав Вакарчук – 7% респондентів визнали його талант.
ОНОВЛЕНО 30.05.2011
Додав альбом "1996 - З ранку до ночі" (2006 Artur Music). Джерело kievman2


Золотий реліз (завантажене не впливає на рейтинг)
 Трекер:    Зареєстрований   

Завантажити / скачати українську музику



відео для новачків



 Зареєстрований:   2011-05-30 11:10
 Розмір:   2.69 GB 
 Оцінка музики:   10/10 (Голосів: 24)
   
ssTAss 
Модератор музики


З нами з: 05.07.08
Востаннє: 09.12.16
Повідомлень: 10948

2009-07-28 20:25  
plyrvt написано:
1998 - Перша і остання любов

з оф сайту - 1997
plyrvt написано:
Мова: українська, російська (2 треки), іспанська (1 трек), італійська (1 трек)

це треба вказувати до кожного диску, якщо мова не одна і не кількість треків, а які саме
plyrvt написано:
Бітрейт: lossless (~852-924 kbps))

бітрейт пишемо українською... тобто кб/с

Додано через 3 хвилини 13 секунд:

plyrvt написано:
Країна, місто: Україна

ну і місто можна написати Хмельницький - Київ

plyrvt 
VIP


З нами з: 03.12.08
Востаннє: 03.12.16
Повідомлень: 398

2009-07-28 20:38  
Цитата:
бітрейт пишемо українською... тобто кб/с

кб/с наскільки я знаю розшифровується як кбай/сек, а не кбіт/сек

Цитата:
це треба вказувати до кожного диску, якщо мова не одна і не кількість треків, а які саме

яким чином

Цитата:
з оф сайту - 1997

ага, нагуглив що "Другий альбом Пономарьова – „Перша і остання любов” вийшов у грудні 1997 на свіжоспеченому лейблі „Нова Рекордс", просто на диску який я ріпав отака наклейка:
скан
Цитата:
ну і місто можна написати Хмельницький - Київ

а що в цих містах? хіба в правилах розділу музика щось говориться про паспортні дані виконавців, зокрема сторінка 1 (місце народження) і 15 (місце реєстрації проживання)? Може він прописався десь в селі, щоб менше платити за комунпослуги?

Ця графа в оформленні музичного релізу взагалі абсурдна. На всіх музичних трекерах графа "країна" означає країну видавця компакт-диска, а не паспортні дані виконавців.

ssTAss 
Модератор музики


З нами з: 05.07.08
Востаннє: 09.12.16
Повідомлень: 10948

2009-07-28 21:03  
plyrvt написано:
ага, нагуглив що "Другий альбом Пономарьова – „Перша і остання любов” вийшов у грудні 1997

не "нагуглив", а з оф сайту інфа
plyrvt написано:
а що в цих містах? хіба в правилах розділу музика щось говориться про паспортні дані виконавців, зокрема сторінка 1 (місце народження) і 15 (місце реєстрації проживання)? Може він прописався десь в селі, щоб менше платити за комунпослуги?

та графа взагалі є необов'язковою, але
Цитата:
Ми маємо знати які куточки країни багаті на таланти.

plyrvt написано:
Цитата:
це треба вказувати до кожного диску, якщо мова не одна і не кількість треків, а які саме

яким чином

наприклад
Мова: українська(1-3, 5-9, 13), російська (4, 10-12, 14)
і так до кожного альбому
а в загальній колонці
Мова: українська, російська, іспанська, італійська (див. поальбомно)
plyrvt написано:
кб/с наскільки я знаю розшифровується як кбай/сек, а не кбіт/сек

а взагалі, хочеться посперечатись чи просто поговорити? читаємо Правила оформлення музичного релізу

plyrvt 
VIP


З нами з: 03.12.08
Востаннє: 03.12.16
Повідомлень: 398

2009-07-28 21:25  
ssTAss написано:
а взагалі, хочеться посперечатись чи просто поговорити? читаємо Правила оформлення музичного релізу

я бачу що в правилах написано "кб/с", але це значить що ~852-924 kbps слід писати як 106-115 кб/с.
такий абсурдний формат (бітрейт для lossless це вже саме по собі абсурд) збиватиме людей з пантелику
Бажання пливти проти течії ще можна зрозуміти, але ж не по асфальту?

То що робити з альбомом "Перша і остання любов", правити назви папок, файлів, і *.CUE на 2007?
Хто його зна, може студія завершила запис і провела презентацію 21.12.2007, а лейбл Nova records наштампував дисків з позначкою © 1998 Nova records?

6c6c6 
Поважний учасник


З нами з: 30.09.07
Востаннє: 30.09.09
Повідомлень: 3674

2009-07-28 22:33  
plyrvt написано:
~852-924 kbps слід писати як 106-115 кб/с

Та невже? А нічого що є різниця між напсианням кілобайт та кілобіт. От власне кілобайт=кБ, мегабайт=МБ, а то кілобіт=кбіт. Тому й дійсно більш вірнішим має бути саме кбіт/с
plyrvt написано:
бітрейт для lossless це вже саме по собі абсурд

Вміст кисню в повітрі також абсурд? Розкажете це водолазам та альпіністам Happy

П.С. Цікаво і як то воно по асфальту плавається?

plyrvt 
VIP


З нами з: 03.12.08
Востаннє: 03.12.16
Повідомлень: 398

2009-07-28 23:08  
Цитата:
Тому й дійсно більш вірнішим має бути саме кбіт/с

Ну от релізеру і вибирай, чи писати вірніше чи всупереч правилам

Цитата:
Вміст кисню в повітрі також абсурд? Розкажете це водолазам та альпіністам

Вміст кисню в повітрі може мінятися. Бітрейт CD-DA диска не може мінятися, і завжди рівний 1440 кбіт/сек, незалежно від застосування архіваторів для файлів.

Вимагати вказування лослесс бітрейту рівноцінне вимогам вказувати % компресії RAR файлів в релізах де є архівні файли.

6c6c6 
Поважний учасник


З нами з: 30.09.07
Востаннє: 30.09.09
Повідомлень: 3674

2009-07-28 23:32  
plyrvt написано:
% компресії RAR файлів в релізах де є архівні файли.

Релізи в архівах заборонені Happy Щодо ступеню стиснення музики в луслесі вже було обговорення тут. Прошу ознайомитись.
plyrvt написано:
Вміст кисню в повітрі може мінятися.

Але ступінь стиснення а відповідно і тиску може зробити повітря рідким або ж стиснутим (ех від тавтології нікуди). Відповідно однакова маса кисню буде займати різний об’єм. Аналогічно і з луслес-ріпами.

Додано через 9 хвилин 33 секунди:

plyrvt написано:
Ну от релізеру і вибирай, чи писати вірніше чи всупереч правилам

Було написано всупереч правилам а відповідно невірно. Аби було використано „кбіт/с“, то і питань би не виникло.

plyrvt 
VIP


З нами з: 03.12.08
Востаннє: 03.12.16
Повідомлень: 398

2009-07-28 23:39  
Цитата:
Релізи в архівах заборонені


Ну це тому що трекер не орієнтований на софт, а на фільми, і частково ігри, які йдуть вже компресовані інсталяторами.

Якщо колись надумаєте розвивати розділ "Софт" (хоча толоці це ні до чого, бо українського софту немає), то будете змушені додати в правила пункт який дозволяє (або й навіть зобовязує) у випадку великого степеня стиску (30-50% або більше) або у випадку надто великої кількості файлів роздавати в архіві. Ну або пропагувати замість архівів стиснені образи (ISZ тощо).

Цитата:
Аналогічно і з луслес-ріпами.

не прослідковую ніякої аналогії з киснем

6c6c6 
Поважний учасник


З нами з: 30.09.07
Востаннє: 30.09.09
Повідомлень: 3674

2009-07-28 23:50  
plyrvt написано:
бо українського софту немає

Є, але то вже інша розмова.
plyrvt написано:
не прослідковую ніякої аналогії з киснем

Вже багато чого наговорив (використовуючи порівняння, аби було більш доступно для сприйняття) і пояснювати „на пальцях“ вже набридло. Читаємо і робимо висновки.

Є претензії чи пропозиції – є для цього розділ „Обговорення та ідеї“.

Додано через 5 хвилин 45 секунд:

plyrvt написано:
просто на диску який я ріпав отака наклейка

На тих „наклейках“ дуже часто ліві роки, назви гуртів та альбомів. Чи то через систему „спрощення“, чи просто „незнання“ (свідомого чи ні).
plyrvt написано:
На всіх музичних трекерах графа "країна" означає країну видавця компакт-диска, а не паспортні дані виконавців.

Навіщо інформація про країну-видавця? Ми маємо на меті популяризувати українське, збирати про виконавців інформацію (хто, звідки і чому). До речі на металічних сайтах чомусь зазначається саме „паспортні дані“ гуртів а не те, в якій країні їх диск видали (не враховуючи джапаніз едішн, коли це зазначається або ж у назві альбому або в додатковій інформації, але аж ніяк не в „Країні“).

plyrvt 
VIP


З нами з: 03.12.08
Востаннє: 03.12.16
Повідомлень: 398

2009-07-29 00:09  
Цитата:
Читаємо і робимо висновки.

Висновок такий, що є єдина причина навіщо вказувати бітрейт lossless кодера, і вона не вказана в тому обговоренні.
Бітрейт lossless кодера це 1411 kbps / степінь стиску.
Степінь стиску характеризує звукову насиченість матеріалу. Чим степінь стиску вища (нижчий lossless бітрейт) тим легший матеріал (ambient, vocal etc), чим гірше тиснеться - тим важча музика (rock, metal). Що погано тисне архіватор те важко сприймає мозок. Також низький lossless бітрейт викликає підозру на транскод з MPEG.

Цитата:
Ми маємо на меті популяризувати українське, збирати про виконавців інформацію (хто, звідки і чому)

Ну тоді слід пояснити десь в правилах що мається на увазі під містом, може Пономарьов прописаний десь в с. Хоружівка або в Ялті на дачі.

До речі по паспортній базі він прописаний:
ПОНОМАРЕВ АЛЕКСАНДР ВАЛЕРИЕВИЧ 0 1973-08-09 М.КИЇВ КОРОЛЬОВА 4 0 49

6c6c6 
Поважний учасник


З нами з: 30.09.07
Востаннє: 30.09.09
Повідомлень: 3674

2009-07-29 21:15  
plyrvt написано:
Ну тоді слід пояснити десь в правилах що мається на увазі під містом

Буде враховано.
plyrvt написано:
Степінь стиску характеризує звукову насиченість матеріалу.

А більшості архіваторів (FLAC та APE з іншими не виключення) мають кілька ступенів стиску:
1) надмірне стиснення (звісно без втрати першочергового матеріалу) – стискає та обробляє при розпакуванні довше (для музики неприпустиме Happy ) та з більшою вимогою системних ресурсів, але отримуємо файл найменш можливого розміру;
2) збалансований варіант – посередній вплив на тривалість стиснення та більш людські вимоги до ресурсів;
3) мале стиснення – стискає швидко і без особливих вимог до системних ресурсів, але отрмиуємо файл, який майже не відрізняється від оригіналу за розміром.

plyrvt 
VIP


З нами з: 03.12.08
Востаннє: 03.12.16
Повідомлень: 398

2009-07-29 22:17  
Цитата:
А більшості архіваторів (FLAC та APE з іншими не виключення) мають кілька ступенів стиску:
оффтоп

Так, але по бітрейту ніяк неможливо хоча б приблизно оцінити чи стиснення було Insane чи Fast.
Якщо інформація про профіль стиснення є цінною, то потрібно вимагати в оформленні саме її, а не бітрейт. Я тисну переважно в High.

На рахунок "надмірного і малого" профілю стиснення ваші дані трохи гіперболізовані. Різниця між Fast та Insane (або -1 .. -8 для FLAC) в кінцевому розмірі файлу (а відповідно й бітрейті) є невеликою, на прикладі альбому "Перша і остання любов":

- WAV - 1411 kbps
- Fast - 936 kbps
- Normal - 921 kbps
- High - 916 kbps
- Extra high - 910 kbps
- Insane - 908 kbps

Тобто різниця між "надмірним" і "малим" стисненням складає лише 3%, і такою різницею можна знехтувати (а не стверджувати що " отрмиуємо файл, який майже не відрізняється від оригіналу за розміром", скоріше "майже не відрізняється від надмірно стисненого файла за розміром")

На рахунок "більш людських вимог до системних ресурсів" ваші дані теж гіперболізовані.
Щоб оцінити вимоги до ресурсів об'єктивно, скористаємося модулем foo_benchmark (Decode speed test)

- WAV - 3575.749x realtime
- Fast - 83.815x realtime
- Normal - 64.149x realtime
- High - 55.930x realtime
- Extra high - 32.222x realtime
- Insane - 10.892x realtime

Навіть в клінічному випадку (Insane профіль, який не рекомендується через певні виявлені баги і проблеми з прокруткою) достатньо 2800 / 10.892 = 257 Мгц процесора архітектури AMD K8
Ну щоб мати 2-кратний запас, округлимо до 533 Мгц.

Тобто дуже устарілий комп, який не здатен програвати все Divx відео (лише відносно низькобітрейтне), має запас потужності для програвання навіть критично стисненного lossless.
А для Extrahigh профілю достатньо компа який здатен програвати mp3 (Pentium-1)

З кодеком FLAC там взагалі все елементарно, найвищий профіль -v 8 дає файл 946 kbps (тисне гірше ніж APE Fast), який декодується 328.902x realtime !! тобто для його програвання щось рівня Спектрума треба.

ssTAss 
Модератор музики


З нами з: 05.07.08
Востаннє: 09.12.16
Повідомлень: 10948

2009-07-30 00:51  
то торба... ото розвели дискусію поки мене не було)))
plyrvt, дякую за виправлення
і все таки в описі треба замінити 1998 рік на 1997 (самі файли і торент-файл не потрібно змінювати)
особисто для plyrvt
і надалі попрошу не влаштовувати непотрібних "розборок".. є тут такі правила - попрошу їх виконувати... на різних трекерах вони різні і кожен вибирає той ресурс, який йому до вподоби, виконуючи вимоги трекеру... а для дискусій, пропозицій та невдоволень є спеціальний розділ... в самому ж релізі обговорюємо музику, виконавця, альбом

plyrvt 
VIP


З нами з: 03.12.08
Востаннє: 03.12.16
Повідомлень: 398

2009-07-30 12:11  
Цитата:
є тут такі правила - попрошу їх виконувати... на різних трекерах вони різні і кожен вибирає той ресурс, який йому до вподоби, виконуючи вимоги трекеру...

правила є, але в зародковому стані, як і контент (я про розділи музика). правила мають шліфуватися і розвиватися.

Цитата:
а для дискусій, пропозицій та невдоволень є спеціальний розділ... в самому ж релізі обговорюємо музику, виконавця, альбом

ну раз модератори пишуть свої технічні претензії в топіку, а не в ЛС, то і я пишу сюди. Мабуть марно надіючись що то все почистять.

ua2004 
Відео Гуртом - фільмокрай
Відео Гуртом - фільмокрай


З нами з: 31.01.08
Востаннє: 06.12.16
Повідомлень: 3128

2009-07-31 19:34  
Це не повна дискографія. Перед альбомом "Перша і остання любов" був ще один альбом. Не хочу брехати, але здається, він називався "Зранку до ночі".

Це на 200% точно, бо я ще пам'ятаю в дитинстві слухав касету з піснею "Зранку до ночі". А коли аж пізніше вийшла касета "Перша і остання любов", то купив її. Це була нова касета.

ssTAss 
Модератор музики


З нами з: 05.07.08
Востаннє: 09.12.16
Повідомлень: 10948

2009-08-01 12:28  
ua2004,ви не уважні.... див. додаткову інформацію
Цитата:
Додаткова інформація:
Майже дискографія Олександра Пономарьова. Недостає найпершого альбома "1996 - З ранку до ночі", 4 пісні з якого є в збірці "2004 - Краще"

ua2004 
Відео Гуртом - фільмокрай
Відео Гуртом - фільмокрай


З нами з: 31.01.08
Востаннє: 06.12.16
Повідомлень: 3128

2009-08-01 18:49  
ssTAss, ага, справді не побачив Happy
mohauk 
Новенький


З нами з: 09.02.09
Востаннє: 13.08.13
Повідомлень: 7

2009-12-17 11:17  
А шкода, доречі, що "З ранку до ночі" нема. Бо, як на мене, то був однозначно найкращий альбом Пономарьова.
tsobko 
Новенький


З нами з: 09.01.10
Востаннє: 02.12.16
Повідомлень: 10

2010-01-10 16:04  
Красно дякую за таку чудову дискографію. Правда якість альбому "Краще" чомусь мені не сподобалась: високі частоти аж зашкалюють, а баси чомусь пасуть задніх. Думаю, вина в тому видавника диска.
Роздаючим: ТАК ТРИМАТИ! Стискати копії аудіо-дисків дійсно з мінімальними втратами (відсотків до 70-80).

plyrvt 
VIP


З нами з: 03.12.08
Востаннє: 03.12.16
Повідомлень: 398

2010-01-10 21:11  
Найшов дуже прикру помилку.
Назви треків альбому "1998 - Перша і остання любов" докорінно неправильно вказані на обкладинці, звідки я їх і переписав в EAC.
Правильний CUE

REM GENRE Pop
REM DATE 1998
REM DISCID 85092D0A
REM COMMENT "ExactAudioCopy v0.99pb5"
PERFORMER "Олександр Пономарьов"
TITLE "Перша і остання любов"
FILE "1998 - Перша і остання любов.ape" WAVE
TRACK 01 AUDIO
TITLE "Серденько"
INDEX 01 00:00:00
TRACK 02 AUDIO
TITLE "Перша і остання любов"
INDEX 00 03:35:29
INDEX 01 03:37:29
TRACK 03 AUDIO
TITLE "А я піду"
INDEX 00 07:07:50
INDEX 01 07:09:50
TRACK 04 AUDIO
TITLE "Белый кадиллак"
INDEX 00 10:02:11
INDEX 01 10:04:11
TRACK 05 AUDIO
TITLE "Знову і знову"
INDEX 00 14:21:00
INDEX 01 14:23:00
TRACK 06 AUDIO
TITLE "Для неї..."
INDEX 00 18:16:14
INDEX 01 18:18:14
TRACK 07 AUDIO
TITLE "Молитва"
INDEX 00 21:30:20
INDEX 01 21:32:20
TRACK 08 AUDIO
TITLE "На схід"
INDEX 00 24:50:70
INDEX 01 24:52:70
TRACK 09 AUDIO
TITLE "Зіронька (remix)"
INDEX 00 29:05:30
INDEX 01 29:07:30
TRACK 10 AUDIO
TITLE "Голоси"
INDEX 00 32:52:00
INDEX 01 32:54:00

jinotot 
Почесний оцифрувальник літератури


З нами з: 28.01.09
Востаннє: 04.12.16
Повідомлень: 3235

2010-01-10 23:07  
plyrvt, може, варто оновити торрент?
А в шапці теми написати попередження і там також дати спойлер із правильним CUE -- гадаю, там більш помітно буде.

kievman2 
Новенький


З нами з: 26.08.10
Востаннє: 28.09.14
Повідомлень: 14

2010-10-31 18:54  
Блин не могу скачать торент помогите разобраться
ssTAss 
Модератор музики


З нами з: 05.07.08
Востаннє: 09.12.16
Повідомлень: 10948

2010-10-31 21:07  
під зеленою стрілкою є
plyrvt написано:
Завантажити
17 KB

натискаємо..

kievman2 
Новенький


З нами з: 26.08.10
Востаннє: 28.09.14
Повідомлень: 14

2011-05-26 23:52  
выложил альбом "З ранку до ночі" на рутрекер
ssTAss 
Модератор музики


З нами з: 05.07.08
Востаннє: 09.12.16
Повідомлень: 10948

2011-05-26 23:58  
чому не сюди?
kievman2 
Новенький


З нами з: 26.08.10
Востаннє: 28.09.14
Повідомлень: 14

2011-05-29 13:28  
sstass хай автор включить до своєї роздачі - не хочу лізти в чужий огород.
ssTAss 
Модератор музики


З нами з: 05.07.08
Востаннє: 09.12.16
Повідомлень: 10948

2011-05-29 15:35  
kievman2 написано:
sstass хай автор включить до своєї роздачі - не хочу лізти в чужий огород

та я також за це, але якщо автор не додасть?
що Вам заважає викласти окремий реліз, а коли його додадуть в дискографію, то просто піде в архів
але як хочете
заставляти нікого не можу... будем чекати, коли plyrvt оновить дискографію

plyrvt 
VIP


З нами з: 03.12.08
Востаннє: 03.12.16
Повідомлень: 398

2011-06-08 22:37  
ОНОВЛЕНО 30.05.2011
Додав альбом "1996 - З ранку до ночі" (2006 Artur Music). Джерело kievman2

ssTAss 
Модератор музики


З нами з: 05.07.08
Востаннє: 09.12.16
Повідомлень: 10948

2011-06-08 23:09  
plyrvt написано:
1996 - З ранку до ночі" (2006 Artur Music). Джерело kievman2

сім пісень з десяти - мпег
мдя, халтурить артур мюзік

Ваш часовий пояс: GMT + 2 Години

Нова тема   Відповісти Сторінка:  1, 2  наступна