Завантажити та скачати торренти українською


Секс і місіс "Ікс" / Секс і місіс X / Sex & Mrs. X (2000) 1080p Ukr/Eng

Нові коментарі

Нова тема   Відповісти
Останній раз роздавалося hattabych74 (2016-12-09)
Автор Повідомлення
urij546724 
Відео Гуртом - фільмокрай
Відео Гуртом - фільмокрай


З нами з: 16.03.10
Востаннє: 08.12.16
Повідомлень: 5222

2015-05-21 09:46  
Секс і місіс "Ікс" / Секс і місіс X / Sex & Mrs. X (2000) 1080p Ukr/Eng

Секс і місіс "Ікс" / Секс і місіс X / Sex & Mrs. X (2000) 1080p Ukr/Eng


Жанр: драма, комедія
Країна: США



Кіностудія / кінокомпанія: Brayton-Carlucci Productions, Hearst Entertainment Productions
Режисер: Артур Аллан Сейдельман (Arthur Allan Seidelman)
Актори: Жаклін Біссет (Jacqueline Bisset), Лінда Хемілтон (Linda Hamilton), Паоло Сеганті (Paolo Seganti), Пітер МакНейл (Peter MacNeill), Стюарт Бік (Stewart Bick), Трейсі Е. Брегман (Tracey E. Bregman), Марина Андерсон (Marina Anderson), Лаура Каталано (Laura Catalano)...

Сюжет:
Ще зовсім недавно Джоана твердо знала, що вона - хороша журналістка й ідеальна дружина, щойно відсвяткувала десяту річницю весілля. Але коли чоловік покинув її заради іншої жінки, світ Джоани зруйнувався. Вона вирішила, що потрібно на час поїхати якомога далі від дому. І відправилася в Париж, щоб взяти інтерв'ю в «мадам» Сімон, процвітаючої господарки служби високооплачуваних дівчат за викликом. Витончена і спокуслива наставниця молодих звабливих красунь, Сімон, швидко знаходить підхід до Джоани. І виявляє, що під покровом відчуженості ховається дуже вразлива жінка, яка хоче бути коханою і бажаною. Спілкування з Сімон і чудове, хвилюче кров паризьке повітря допомагають Джоані знову знайти віру в себе і відкрити душу для щастя і любові.
Media info
General
ID : 1 (0x1)
Complete name : E:\HD1\Sex & Mrs. X (2000) [ukr.TTPforAuroraDistribution_eng_AC3_2.0] 1080p [Hurtom] by urij546724.ts
Format : MPEG-TS
File size : 4.02 GiB
Duration : 1h 30mn
Overall bit rate mode : Variable
Overall bit rate : 6 359 Kbps
Maximum Overall bit rate : 35.5 Mbps

Video
ID : 4113 (0x1011)
Menu ID : 1 (0x1)
Format : AVC
Format/Info : Advanced Video Codec
Format profile : [email protected]
Format settings, CABAC : Yes
Format settings, ReFrames : 3 frames
Format settings, GOP : M=4, N=32
Codec ID : 27
Duration : 1h 30mn
Bit rate mode : Variable
Bit rate : 5 657 Kbps
Maximum bit rate : 40.0 Mbps
Width : 1 920 pixels
Height : 1 080 pixels
Display aspect ratio : 16:9
Frame rate : 25.000 fps
Standard : Component
Color space : YUV
Chroma subsampling : 4:2:0
Bit depth : 8 bits
Scan type : Interlaced
Scan order : Top Field First
Bits/(Pixel*Frame) : 0.109
Stream size : 3.57 GiB (89%)
Color primaries : BT.709
Transfer characteristics : BT.709
Matrix coefficients : BT.709

Audio #1
ID : 4352 (0x1100)
Menu ID : 1 (0x1)
Format : AC-3
Format/Info : Audio Coding 3
Mode extension : CM (complete main)
Format settings, Endianness : Big
Codec ID : 129
Duration : 1h 30mn
Bit rate mode : Constant
Bit rate : 192 Kbps
Channel count : 2 channels
Channel positions : Front: L R
Sampling rate : 48.0 KHz
Bit depth : 16 bits
Compression mode : Lossy
Stream size : 124 MiB (3%)
Language : Ukrainian

Audio #2
ID : 4353 (0x1101)
Menu ID : 1 (0x1)
Format : AC-3
Format/Info : Audio Coding 3
Mode extension : CM (complete main)
Format settings, Endianness : Big
Codec ID : 129
Duration : 1h 30mn
Bit rate mode : Constant
Bit rate : 192 Kbps
Channel count : 2 channels
Channel positions : Front: L R
Sampling rate : 48.0 KHz
Bit depth : 16 bits
Compression mode : Lossy
Stream size : 124 MiB (3%)
Language : English
Тривалість: 1:30:27
Якість: 1080p
Відео:
кодек:
розмір кадру: 1920 х 1080
бітрейт: ~ 5657 кб/с
частота кадрів: 25 к/с (fps)

Аудіо #1:
мова: українська
переклад: двоголосий закадровий
кодек: 2.0 (подвійне моно)
бітрейт: 192 кб/с
запис звуку з каналу: ТТП для Аврора Дистрибушн

Аудіо #2:
мова: англійська
переклад: оригінал
кодек: 2.0
бітрейт: 192 кб/с

Скріншоти:





Трейлер:
Семпл
Джерело 1_________Джерело 2_________Джерело 3_________Джерело 4_________Джерело 5_________Джерело 6
У випадку, якщо з усіх джерел семпл видалять, прохання повідомити мені у ПРИВАТ


Подяка:

1. Пану Merdiff за запис звуку з ТБ.


Реліз створено:

Особиста оцінка: Ще не дивився.


Срібний реліз (на рейтинг впливає 50% завантаженого)
 Трекер:    Зареєстрований   

Завантажити / скачати фільм українською



відео для новачків



 Зареєстрований:   2015-05-21 09:46
 Розмір:   4.02 GB 
 Оцінка фільму:   6.1/10 (Голосів: 8)
 Прохання залишати коментарі і не тікати з роздачі.
   
Інші релізи
Ваш часовий пояс: GMT + 2 Години

Нова тема   Відповісти