Завантажити та скачати торренти українською


Lюk - Мамина юность (2009) [FLAC] | Rock / Аlternative

Нові коментарі

Нова тема   Відповісти
Останній раз роздавалося mr_untitle (2016-10-20)
Автор Повідомлення
kolpavel 
VIP


З нами з: 04.05.14
Востаннє: 03.12.16
Повідомлень: 1060

2015-05-19 18:53  
Lюk - Мамина юность (2009) [FLAC] | Rock / Аlternative

Lюk - Мамина юность (2009) [FLAC] | Rock / Аlternative


Стиль: Rock, Аlternative, Electronic
Країна, місто: Україна, Харків
Сайти: Офіційний сайт
Видавець: Comp Music/EMI
Виконавці:
Оля Герасимова (Малая) - вокал
Олег Сердюк (Younnat) - клавіші, electro-перкусія
Валентин Панюта (uta) - гітара
Сергій Бельмас (Дед Мороз) - бас
Олександр Кратінов (Крот) - барабани
Пісні:
    01. Друг -03:48
    02. Нафта -03:35
    03. Митхун Чакраборти - 03:58
    04. le petrole-27 -04:16
    05. Олени -03:08
    06. Дама из Праги -04:05
    07. Байкалы, Амуры -04:39
    08. Зима (ua.version) -03:20
    09. Porno -03:34
    10. Антон -03:44
    11. L'emozzione -03:43
    12. Время внутри -04:03
    13. Tribute to shostakovich -02:39
    14. Bonus: Зима (ru.version) -03:20

Тривалість: 00:51:58
Мова: українська (2,8,10), російська (1,3,5-7,12,13,14), французька (4), iталiйська (9).
Аудіо-кодек: FLAC
Бітрейт: 669-1013 кб/с
Джерело: Інтернет
Додаткова інформація:
auCDtect Task manager:
Лог EAC
Exact Audio Copy V0.99 prebeta 4 from 23. January 2008

EAC extraction logfile from 15. May 2009, 22:38

Lюk / Мамина Юность

Used drive : HL-DT-STDVDRAM GSA-H44N Adapter: 5 ID: 0

Read mode : Secure
Utilize accurate stream : Yes
Defeat audio cache : Yes
Make use of C2 pointers : No

Read offset correction : 667
Overread into Lead-In and Lead-Out : No
Fill up missing offset samples with silence : Yes
Delete leading and trailing silent blocks : No
Null samples used in CRC calculations : Yes
Used interface : Installed external ASPI interface
Gap handling : Appended to previous track

Used output format : User Defined Encoder
Selected bitrate : 1024 kBit/s
Quality : High
Add ID3 tag : No
Command line compressor : D:\Program files\FLAC\flac.exe
Additional command line options : -8 -V -T "ARTIST=%a" -T "TITLE=%t" -T "ALBUM=%g" -T "DATE=%y" -T "TRACKNUMBER=%n" -T "GENRE=%m" -T "COMMENT=EAC FLAC -8" %s

TOC of the extracted CD

Track | Start | Length | Start sector | End sector
---------------------------------------------------------
1 | 0:00.00 | 3:50.00 | 0 | 17249
2 | 3:50.00 | 3:37.63 | 17250 | 33587
3 | 7:27.63 | 4:00.01 | 33588 | 51588
4 | 11:27.64 | 4:18.60 | 51589 | 70998
5 | 15:46.49 | 3:10.31 | 70999 | 85279
6 | 18:57.05 | 4:07.16 | 85280 | 103820
7 | 23:04.21 | 4:41.12 | 103821 | 124907
8 | 27:45.33 | 3:22.41 | 124908 | 140098
9 | 31:07.74 | 3:36.34 | 140099 | 156332
10 | 34:44.33 | 3:46.01 | 156333 | 173283
11 | 38:30.34 | 3:45.62 | 173284 | 190220
12 | 42:16.21 | 4:05.74 | 190221 | 208669
13 | 46:22.20 | 2:39.60 | 208670 | 220654

Track 1

Filename D:\01. Lюk – Друг.wav

Pre-gap length 0:00:02.00

Peak level 100.0 %
Track quality 100.0 %
Test CRC 0F1C5B11
Copy CRC 0F1C5B11
Copy OK

Track 2

Filename D:\02. Lюk – Нафта.wav

Pre-gap length 0:00:02.00

Peak level 100.0 %
Track quality 99.9 %
Test CRC 31A05AB1
Copy CRC 31A05AB1
Copy OK

Track 3

Filename D:\03. Lюk – Митхун Чакраборти.wav

Pre-gap length 0:00:02.00

Peak level 100.0 %
Track quality 100.0 %
Test CRC F627F2E7
Copy CRC F627F2E7
Copy OK

Track 4

Filename D:\04. Lюk – Le petrole-27.wav

Pre-gap length 0:00:02.00

Peak level 100.0 %
Track quality 100.0 %
Test CRC 13481738
Copy CRC 13481738
Copy OK

Track 5

Filename D:\05. Lюk – Олени.wav

Pre-gap length 0:00:02.00

Peak level 100.0 %
Track quality 100.0 %
Test CRC 3E9B5138
Copy CRC 3E9B5138
Copy OK

Track 6

Filename D:\06. Lюk – Дама из Праги.wav

Pre-gap length 0:00:02.00

Peak level 100.0 %
Track quality 100.0 %
Test CRC 2E3C1ECD
Copy CRC 2E3C1ECD
Copy OK

Track 7

Filename D:\07. Lюk – Байкалы, Амуры.wav

Pre-gap length 0:00:02.00

Peak level 100.0 %
Track quality 100.0 %
Test CRC 323F537F
Copy CRC 323F537F
Copy OK

Track 8

Filename D:\08. Lюk – Зима.wav

Pre-gap length 0:00:02.00

Peak level 100.0 %
Track quality 99.9 %
Test CRC A0EBF3C4
Copy CRC A0EBF3C4
Copy OK

Track 9

Filename D:\09. Lюk – Porno.wav

Pre-gap length 0:00:02.00

Peak level 100.0 %
Track quality 100.0 %
Test CRC A48EFF1A
Copy CRC A48EFF1A
Copy OK

Track 10

Filename D:\10. Lюk – Антон.wav

Pre-gap length 0:00:02.00

Peak level 100.0 %
Track quality 100.0 %
Test CRC 9A4E821B
Copy CRC 9A4E821B
Copy OK

Track 11

Filename D:\11. Lюk – L`emozzione.wav

Pre-gap length 0:00:02.00

Peak level 100.0 %
Track quality 100.0 %
Test CRC 3D7BD115
Copy CRC 3D7BD115
Copy OK

Track 12

Filename D:\12. Lюk – Время внутри.wav

Pre-gap length 0:00:02.00

Peak level 100.0 %
Track quality 100.0 %
Test CRC 9134B22D
Copy CRC 9134B22D
Copy OK

Track 13

Filename D:\13. Lюk – Tribute to Shostakovich.wav

Pre-gap length 0:00:02.00

Peak level 100.0 %
Track quality 100.0 %
Test CRC 8BE3A7AD
Copy CRC 8BE3A7AD
Copy OK

No errors occurred

End of status report
Якщо Ви справді бажаєте підтримати українське - після прослуховування, якщо музика вам сподобалась, придбайте ліцензійний диск. Підтримаймо вітчизняних виконавців!


Срібний реліз (на рейтинг впливає 50% завантаженого)
 Трекер:    Зареєстрований   

Завантажити / скачати українську музику



відео для новачків



 Зареєстрований:   2015-05-19 18:53
 Розмір:   351 MB 
 Оцінка музики:   5.5/10 (Голосів: 6)
   
Volovik 
VIP


З нами з: 21.02.10
Востаннє: 03.12.16
Повідомлень: 341

2015-05-22 11:38  
в обкладинках трекліст зовсім інший
kolpavel 
VIP


З нами з: 04.05.14
Востаннє: 03.12.16
Повідомлень: 1060

2015-05-22 17:10  
Volovik, дааа, дивно. Думаю редактори-полiграфiсти щось начудили.
Ваш часовий пояс: GMT + 2 Години

Нова тема   Відповісти