Завантажити та скачати торренти українською


Піднесення Юпітер / Jupiter Ascending (2015) 1080p 3D [Anamorph SBS] Ukr/Eng | Sub Eng

Нові коментарі

Нова тема   Відповісти
Автор Повідомлення
3d_reliz 
Частий відвідувач


З нами з: 28.09.14
Востаннє: 15.03.16
Повідомлень: 35

2015-05-19 16:51  
Піднесення Юпітер / Jupiter Ascending (2015) 1080p 3D [Anamorph SBS] Ukr/Eng | Sub Eng

Піднесення Юпітер / Jupiter Ascending (2015) 1080p 3D [Anamorph SBS] Ukr/Eng | Sub Eng


Жанр: екшн, пригодницький, фантастика
Країна: США, Великобританія



Кінокомпанія: Dune Entertainment, Village Roadshow Pictures, Warner Bros.
Режисер: Енді Вачовскі / Andy Wachowski та Лана Вачовскі / Lana Wachowski
Актори: Ченнінґ Татум / Channing Tatum, Едді Редмейн / Eddie Redmayne, Міла Куніс / Mila Kunis, Шон Бін / Sean Bean, Дуґлас Бут / Douglas Booth, Ґуґу Мбата-Роу / Gugu Mbatha-Raw, Джеймс Д`Арсі / James D'Arcy та інші

Сюжет:
Дія розгортається у всесвіті, де на інших планетах нашої сонячної системи і їх супутниках існують розумні форми життя. Ці істоти розвиненіші ніж земляни і, само собою, ведуть за ними спостереження.
Героїня - російська емігрантка, займається тим, що миє підлоги в туалеті... прибиральниця вона, коротше. Але вона ще поки не знає, що володіє унікальним ДНК і, в той же час становить загрозу якійсь Королеві Всесвіту і її правлінню.
Істоти, королевою яких є ця Зла Володарка, діляться на кастові групи, які поліпшуються за рахунок ДНК живих істот. Таким чином солдати отримують силу і безстрашність від вовків, а робітники одержують старанність і працьовитість від бджіл.
Незабаром, мисливець за головами був посланий на Землю, щоб позбутися від володарки генетичного досконалості. Але, зовсім раптово, вони закохуються один в одного. І, само собою, цей мисливець стає ворогом для своєї раси...


Тривалість: 02:07:34
Якість: 1080p 3D [Anamorph SBS]
Відео:
кодек:
розмір кадру: 1920 х 800
бітрейт: 9170 кб/с

Аудіо # 1:
мова: українська
переклад: професійний дубльований
кодек: 2.0
бітрейт: 192 кб/с

Аудіо # 2:
мова: англійська
переклад: оригінал
кодек: 5.1
бітрейт: 640 кб/с

Джерело озвучення:


Субтитри:
мова: українська
тип: програмні (м'які)
формат: *.srt

Субтитри:
мова: англійська
тип: програмні (м'які)
формат: *.srt
MediaInfo
General
Unique ID : 177967422198417098713350121572411331888 (0x85E3475C6799F36AA8744CFDAF8B5530)
Complete name : E:\3D_film\Jupiter Ascending (2015) 1080p 3D [ukr_eng] sub ukr_eng [Hurtom].mkv
Format : Matroska
Format version : Version 1
File size : 8.91 GiB
Duration : 2h 7mn
Overall bit rate : 10.0 Mbps
Encoded date : UTC 2015-05-19 14:32:22
Writing application : mkvmerge v2.4.1 ('Use Me') built on Dec 5 2008 18:30:05
Writing library : libebml v0.7.7 + libmatroska v0.8.1
Video #1
ID : 1
Format : AVC
Format/Info : Advanced Video Codec
Format profile : [email protected]
Format settings, CABAC : Yes
Format settings, ReFrames : 5 frames
Codec ID : V_MPEG4/ISO/AVC
Duration : 2h 7mn
Bit rate : 9 170 Kbps
Width : 1 920 pixels
Height : 800 pixels
Display aspect ratio : 2.40:1
Frame rate mode : Constant
Frame rate : 23.976 fps
Color space : YUV
Chroma subsampling : 4:2:0
Bit depth : 8 bits
Scan type : Progressive
Bits/(Pixel*Frame) : 0.249
Stream size : 7.99 GiB (90%)
Writing library : core 144 r2525 40bb568
Encoding settings : cabac=1 / ref=5 / deblock=1:0:0 / analyse=0x3:0x133 / me=umh / subme=7 / psy=1 / psy_rd=1.00:0.00 / mixed_ref=1 / me_range=16 / chroma_me=1 / trellis=1 / 8x8dct=1 / cqm=0 / deadzone=21,11 / fast_pskip=0 / chroma_qp_offset=-2 / threads=48 / lookahead_threads=6 / sliced_threads=0 / nr=0 / decimate=1 / interlaced=0 / bluray_compat=0 / constrained_intra=0 / bframes=3 / b_pyramid=2 / b_adapt=1 / b_bias=0 / direct=1 / weightb=1 / open_gop=0 / weightp=2 / keyint=250 / keyint_min=23 / scenecut=40 / intra_refresh=0 / rc_lookahead=40 / rc=2pass / mbtree=1 / bitrate=9170 / ratetol=1.0 / qcomp=0.60 / qpmin=0 / qpmax=69 / qpstep=4 / cplxblur=20.0 / qblur=0.5 / ip_ratio=1.40 / aq=1:1.00
Language : English
Default : Yes
Forced : No
Audio #2
ID : 2
Format : AC-3
Format/Info : Audio Coding 3
Mode extension : CM (complete main)
Format settings, Endianness : Big
Codec ID : A_AC3
Duration : 2h 7mn
Bit rate mode : Constant
Bit rate : 192 Kbps
Channel(s) : 2 channels
Channel positions : Front: L R
Sampling rate : 48.0 KHz
Bit depth : 16 bits
Compression mode : Lossy
Stream size : 175 MiB (2%)
Title : DUB, iTunes
Language : Ukrainian
Default : Yes
Forced : No
Audio #3
ID : 3
Format : AC-3
Format/Info : Audio Coding 3
Mode extension : CM (complete main)
Format settings, Endianness : Big
Codec ID : A_AC3
Duration : 2h 7mn
Bit rate mode : Constant
Bit rate : 640 Kbps
Channel(s) : 6 channels
Channel positions : Front: L C R, Side: L R, LFE
Sampling rate : 48.0 KHz
Bit depth : 16 bits
Compression mode : Lossy
Stream size : 584 MiB (6%)
Title : Original
Language : English
Default : No
Forced : No
Text #4
ID : 4
Format : UTF-8
Codec ID : S_TEXT/UTF8
Codec ID/Info : UTF-8 Plain Text
Title : Forced
Language : Ukrainian
Default : Yes
Forced : No
Text #5
ID : 5
Format : UTF-8
Codec ID : S_TEXT/UTF8
Codec ID/Info : UTF-8 Plain Text
Language : English
Default : No
Forced : No
Скріншоти



Джерело: &
Особиста оцінка: 0 - не дивився


 Трекер:    Зареєстрований   

Завантажити / скачати фільм українською



відео для новачків



 Зареєстрований:   2015-05-19 16:51
 Розмір:   8.91 GB 
 Оцінка фільму:   7.1/10 (Голосів: 8)
   
Інші релізи
igor911 
Відео Гуртом
Відео Гуртом


З нами з: 18.01.08
Востаннє: 04.12.16
Повідомлень: 5127

2015-05-19 17:05  
3d_reliz написано:

мова: українська
кодек: 5.1

виправте на 2.0
і в англ. теж на

Додано через 1 хвилину 49 секунд:

3d_reliz написано:
Якість:
додайте "1080p 3D [Anamorph SBS]"
igor911 
Відео Гуртом
Відео Гуртом


З нами з: 18.01.08
Востаннє: 04.12.16
Повідомлень: 5127

2015-05-20 07:39  
3d_reliz, після того, як виправив вказані модератором недоліки оформлення, бажано писати повідомлення про виправлення.
Ваш часовий пояс: GMT + 2 Години

Нова тема   Відповісти