Завантажити та скачати торренти українською


Lюk - The Best Of (2008) [FLAC] | Rock / Easy Listening

Нові коментарі

Нова тема   Відповісти
Останній раз роздавалося Myfordownloads (2016-10-09)
Автор Повідомлення
kolpavel 
VIP


З нами з: 04.05.14
Востаннє: 05.12.16
Повідомлень: 1059

2015-05-19 15:13  
Lюk - The Best Of (2008) [FLAC] | Rock / Easy Listening

Lюk - The Best Of (2008) [FLAC] | Rock / Easy Listening


Стиль: Rock, Easy Listening
Країна, місто: Україна, Харків
Сайти: Офіційний сайт
Видавець: Moon Records
Виконавці:
Оля Герасимова (Малая) - вокал
Олег Сердюк (Younnat) - клавіші, electro-перкусія
Валентин Панюта (uta) - гітара
Сергій Бельмас (Дед Мороз) - бас
Олександр Кратінов (Крот) - барабани
Пісні:
    01. Спрага - 03:50
    02. Электрочеловек - 03:14
    03. Le port mix - 03:56
    04. A couse de toi - 04:43
    05. ТіВі - 03:32
    06. L`homme impossible - 04:07
    07. Катя - 03:44
    08. Португальцы - 03:34
    09. Никотин - 04:09
    10. Аэротория - 04:10
    11. Хоп - 04:04
    12. Papa Noel - 04:26
    13. Дядя - 04:24
    14. Друг - 04:01
    15. Caxaлiн - 03:05

Тривалість: 00:59:05
Мова: українська - (1,5,7,10,12,14,15), російська - (2,7,8,9,13,), французька - (3,4,6,11).
Аудіо-кодек: FLAC
Бітрейт: 878-954 кб/с
Джерело: Інтернет
Додаткова інформація:
EAC:
Код:

Exact Audio Copy V0.99 prebeta 5 from 4. May 2009

EAC extraction logfile from 11. June 2009, 10:08

The Best of / Lюk

Used drive : HL-DT-STRW/DVD GCC-4521B Adapter: 1 ID: 0

Read mode : Secure
Utilize accurate stream : Yes
Defeat audio cache : Yes
Make use of C2 pointers : No

Read offset correction : 6
Overread into Lead-In and Lead-Out : No
Fill up missing offset samples with silence : Yes
Delete leading and trailing silent blocks : No
Null samples used in CRC calculations : Yes
Used interface : Native Win32 interface for Win NT & 2000
Gap handling : Appended to previous track

Used output format : User Defined Encoder
Selected bitrate : 128 kBit/s
Quality : High
Add ID3 tag : No
Command line compressor : C:\Program Files\Total Commander\Soft\AIMP\Encoders\flac.exe
Additional command line options : -8 -V -T "ARTIST=%a" -T "TITLE=%t" -T "ALBUM=%g" -T "DATE=%y" -T "TRACKNUMBER=%n" -T "GENRE=%m" -T "COMMENT=EAC FLAC -8" %s
Use compression offset : 0

TOC of the extracted CD

Track | Start | Length | Start sector | End sector
---------------------------------------------------------
1 | 0:00.00 | 3:52.54 | 0 | 17453
2 | 3:52.54 | 3:16.25 | 17454 | 32178
3 | 7:09.04 | 3:58.55 | 32179 | 50083
4 | 11:07.59 | 4:45.38 | 50084 | 71496
5 | 15:53.22 | 3:34.40 | 71497 | 87586
6 | 19:27.62 | 4:09.32 | 87587 | 106293
7 | 23:37.19 | 3:46.40 | 106294 | 123283
8 | 27:23.59 | 3:36.62 | 123284 | 139545
9 | 31:00.46 | 4:11.33 | 139546 | 158403
10 | 35:12.04 | 4:12.24 | 158404 | 177327
11 | 39:24.28 | 4:06.34 | 177328 | 195811
12 | 43:30.62 | 4:28.21 | 195812 | 215932
13 | 47:59.08 | 4:26.31 | 215933 | 235913
14 | 52:25.39 | 4:03.54 | 235914 | 254192
15 | 56:29.18 | 3:05.27 | 254193 | 268094
16 | 62:06.45 | 5:16.47 | 279495 | 303241

Track 1

Filename C:\Downloads\Lюk - the best of\01. Lюk - Спрага.wav

Pre-gap length 0:00:02.00

Peak level 100.0 %
Track quality 100.0 %
Test CRC 4A679E8F
Copy CRC 4A679E8F
Copy OK

Track 2

Filename C:\Downloads\Lюk - the best of\02. Lюk - Электрочеловек.wav

Pre-gap length 0:00:02.00

Peak level 100.0 %
Track quality 100.0 %
Test CRC 01DA39C2
Copy CRC 01DA39C2
Copy OK

Track 3

Filename C:\Downloads\Lюk - the best of\03. Lюk - Le Port Mix.wav

Pre-gap length 0:00:02.00

Peak level 99.9 %
Track quality 99.9 %
Test CRC C2D92583
Copy CRC C2D92583
Copy OK

Track 4

Filename C:\Downloads\Lюk - the best of\04. Lюk - A Couse De Toi.wav

Pre-gap length 0:00:02.00

Peak level 100.0 %
Track quality 100.0 %
Test CRC 501D963E
Copy CRC 501D963E
Copy OK

Track 5

Filename C:\Downloads\Lюk - the best of\05. Lюk - Ті Ві.wav

Pre-gap length 0:00:02.00

Peak level 99.9 %
Track quality 99.9 %
Test CRC C56F1956
Copy CRC C56F1956
Copy OK

Track 6

Filename C:\Downloads\Lюk - the best of\06. Lюk - L`homme Impossible.wav

Pre-gap length 0:00:02.00

Peak level 100.0 %
Track quality 100.0 %
Test CRC F5F3167D
Copy CRC F5F3167D
Copy OK

Track 7

Filename C:\Downloads\Lюk - the best of\07. Lюk - Катя.wav

Pre-gap length 0:00:02.00

Peak level 99.9 %
Track quality 100.0 %
Test CRC E88C6202
Copy CRC E88C6202
Copy OK

Track 8

Filename C:\Downloads\Lюk - the best of\08. Lюk - Португальцы.wav

Pre-gap length 0:00:02.00

Peak level 99.9 %
Track quality 99.9 %
Test CRC ADF8F4DC
Copy CRC ADF8F4DC
Copy OK

Track 9

Filename C:\Downloads\Lюk - the best of\09. Lюk - Никотин.wav

Pre-gap length 0:00:02.00

Peak level 100.0 %
Track quality 100.0 %
Test CRC 0A3224D0
Copy CRC 0A3224D0
Copy OK

Track 10

Filename C:\Downloads\Lюk - the best of\10. Lюk - Аэротория.wav

Pre-gap length 0:00:02.00

Peak level 99.8 %
Track quality 100.0 %
Test CRC B22A0852
Copy CRC B22A0852
Copy OK

Track 11

Filename C:\Downloads\Lюk - the best of\11. Lюk - Хоп.wav

Pre-gap length 0:00:02.00

Peak level 100.0 %
Track quality 100.0 %
Test CRC 76D40310
Copy CRC 76D40310
Copy OK

Track 12

Filename C:\Downloads\Lюk - the best of\12. Lюk - Papa Noel.wav

Pre-gap length 0:00:02.00

Peak level 99.9 %
Track quality 99.9 %
Test CRC D3E34D12
Copy CRC D3E34D12
Copy OK

Track 13

Filename C:\Downloads\Lюk - the best of\13. Lюk - Дядя.wav

Pre-gap length 0:00:02.00

Peak level 99.9 %
Track quality 100.0 %
Test CRC E44C1852
Copy CRC E44C1852
Copy OK

Track 14

Filename C:\Downloads\Lюk - the best of\14. Lюk - Друг.wav

Pre-gap length 0:00:02.00

Peak level 99.9 %
Track quality 99.9 %
Test CRC 7AAEC8BD
Copy CRC 7AAEC8BD
Copy OK

Track 15

Filename C:\Downloads\Lюk - the best of\15. Lюk - Caxaлiн.wav

Pre-gap length 0:00:02.00

Peak level 100.0 %
Track quality 98.6 %
Test CRC E456B671
Copy CRC E456B671
Copy OK

No errors occurred

End of status report
auCDtect Task manager:
Код:

-----------------------

DON'T MODIFY THIS FILE

-----------------------

PERFORMER: auCDtect Task Manager, ver. 1.5.1RC6 build 1.5.1.7
Copyright (c) 2008-2010 y-soft. All rights reserved
http://y-soft.org

ANALYZER: auCDtect: CD records authenticity detector, version 0.8.2
Copyright (c) 2004 Oleg Berngardt. All rights reserved.
Copyright (c) 2004 Alexander Djourik. All rights reserved.

FILE: 12. Lюk - Papa Noel.flac
Size: 27343630 Hash: C8653258C9FF6C4296813306E5F82EE9 Accuracy: -m0
Conclusion: CDDA 99%
Signature: 8E586997A66A198EB5AA8B465E8BBB514DE44BE8
FILE: 11. Lюk - Хоп.flac
Size: 28591540 Hash: 6486CCF551379CA9C35E731C92DFB021 Accuracy: -m0
Conclusion: CDDA 100%
Signature: D430C191B92F2A9B6E580D7D8CA682C7A08E4B3C
FILE: 10. Lюk - Аэротория.flac
Size: 27725320 Hash: 9EB3AAFAB487F8BD90CF729443469907 Accuracy: -m0
Conclusion: CDDA 100%
Signature: 7169B9317A97C16FF2959D2023AD485A7E046AA4
FILE: 09. Lюk - Никотин.flac
Size: 30117804 Hash: B20B623DDA97E9D5113AC14FE6DCDAC3 Accuracy: -m0
Conclusion: CDDA 100%
Signature: 250D4C840523AF1DE07A8A786E38DE6549E57B2B
FILE: 08. Lюk - Португальцы.flac
Size: 26050823 Hash: 1E47DE554BF66FB28A68F62CB79802C9 Accuracy: -m0
Conclusion: CDDA 100%
Signature: 3082356732E92EC2C97B77662AF49D959661E81C
FILE: 07. Lюk - Катя.flac
Size: 26038516 Hash: 6A9AB8BB531F4A5D0126039DD5C9E102 Accuracy: -m0
Conclusion: CDDA 100%
Signature: 156521016D6B490F8AE338E38A8558AC32B2786C
FILE: 06. Lюk - L`homme Impossible.flac
Size: 29118608 Hash: FAE5E4A0F18CCE110EFBEB1F6B3A86CF Accuracy: -m0
Conclusion: CDDA 100%
Signature: 537ADA686CEA2A614DA602F7FD4523F1A6FFF9C0
FILE: 05. Lюk - Ті Ві.flac
Size: 25611912 Hash: 06CA2D6BFF8B98B6EAE59AADC2662E28 Accuracy: -m0
Conclusion: CDDA 100%
Signature: 2859A5AC32B95C3A36689A8FE5E8FFC74B9B9A18
FILE: 04. Lюk - A Couse De Toi.flac
Size: 32964203 Hash: 6397D04B4F3F4435521CD4B5144DDBBF Accuracy: -m0
Conclusion: CDDA 100%
Signature: F0441E2D49341249D931DE0D85FCE7A63A4FBC09
FILE: 03. Lюk - Le Port Mix.flac
Size: 25792710 Hash: 1BD453E8B0D2DFC3DD0DADB410A7A266 Accuracy: -m0
Conclusion: CDDA 100%
Signature: 2D5AC0FFD7A00ED19A6173B4F88EC8A90A8F5457
FILE: 02. Lюk - Электрочеловек.flac
Size: 22945425 Hash: 84DA6F1ECA232B0A728AC877355644D1 Accuracy: -m0
Conclusion: CDDA 99%
Signature: A3C41925362797B1A3B9CB83CCE1F960C851BAB9
FILE: 01. Lюk - Спрага.flac
Size: 27201584 Hash: D42DD02442913AFA7FADBA346C312CAF Accuracy: -m0
Conclusion: CDDA 100%
Signature: 1B9619FA1F92D7C03D9ACFB2442FB0B33A77EB9D
FILE: 15. Lюk - Caxaлiн.flac
Size: 22960976 Hash: AA00DFEA2B855B70BD80582AB37F3048 Accuracy: -m0
Conclusion: CDDA 100%
Signature: 9839170376066D6D8395217E787770FC69051BF3
FILE: 14. Lюk - Друг.flac
Size: 26913849 Hash: 5FD245788F71511A2DDCA7686EC62ED3 Accuracy: -m0
Conclusion: CDDA 100%
Signature: 9079645B092FD907C5C5784252A0E6E5523F0897
FILE: 13. Lюk - Дядя.flac
Size: 31213237 Hash: 1A04FEE3A750D37B2861B6CB0EC19ADC Accuracy: -m0
Conclusion: CDDA 100%
Signature: 231848345B79A50362AA1D82721E5B212AE57831


Якщо Ви справді бажаєте підтримати українське - після прослуховування, якщо музика вам сподобалась, придбайте ліцензійний диск. Підтримаймо вітчизняних виконавців!


Срібний реліз (на рейтинг впливає 50% завантаженого)
 Трекер:    Зареєстрований   

Завантажити / скачати українську музику



відео для новачків



 Зареєстрований:   2015-05-19 15:13
 Розмір:   393 MB 
 Оцінка музики:   5.5/10 (Голосів: 4)
   
Ваш часовий пояс: GMT + 2 Години

Нова тема   Відповісти