Завантажити та скачати торренти українською


Укол парасолькою / Le coup du parapluie (1980) 720p 3xUkr/Fra | Sub Fra/Eng

Нові коментарі

Нова тема   Відповісти
Автор Повідомлення
Anonymous 







2015-05-18 15:32  
Укол парасолькою / Le coup du parapluie (1980) 720p 3xUkr/Fra | Sub Fra/Eng



Альтернативний постер



Жанр: комедія, кримінальний
Країна: Франція



Кінокомпанія: Gaumont, Gaumont International
Режисер: Жерар Урі / Gerard Oury
Актори: П’єр Рішар / Pierre Richard, Валері Мерес / Valerie Mairesse, Крістіна Мурілло / Christine Murillo, Гордон Мітчелл / Gordon Mitchell, Жерар Жюно / Gérard Jugnot, Моріс Ріш / Maurice Risch, Домінік Лаванант / Dominique Lavanant, Вітторіо Капріоле / Vittorio Caprioli, Жер Фроб / Gert Frobe, Ясен Хан / Yaseen Khan та інші

Сюжет:
П'єр Рішар у ролі актора, що знімається в рекламі корму для собак, йде на прослуховування на роль вбивці, помиляється дверима і потрапляє до мафіозі, які дають йому контракт на вбивство впливового торговця зброєю та "болгарську" парасольку з отруєною голкою. Професійний кілер, дізнавшись про це, йде по його сліду, але, як і годиться в гарній комедії, йому дико не щастить, тоді як Рішар дивом, сам того не знаючи, виплутується з будь-якої халепи неушкодженим, хоча за ним полюють і бойовики передбачуваної жертви.


Вікова категорія: 12+

Тривалість: 01:35:26
Якість: 720p
Відео:
кодек:
розмір кадру: 1202 x 720
бітрейт: 8500 кбіт/с

Аудіо #1:
мова: українська
переклад: професійний дубльований
ролі дублювали: Ярослав Чорненький, Наталя Задніпровська, Наталя Поліщук, Анатолій Пашнін, Михайло Жонін, Андрій Самінін
кодек: 2.0
бітрейт: 192 кбіт/с

Аудіо #2:
мова: українська
переклад: двоголосий закадровий
ролі озвучили: Олександр Завальський і Ніна Касторф
кодек: 2.0
бітрейт: 192 кбіт/с

Аудіо #3:
мова: українська
переклад: двоголосий закадровий
ролі озвучили: Анатолій Зіновенко, Тетяна Зіновенко
кодек: 2.0
бітрейт: 192 кбіт/с

Аудіо #4:
мова: французька
переклад: оригінал
кодек: 2.0
бітрейт: 768 кбіт/с

Субтитри # 1-2:
мова: французька, англійська
тип: програмні (м'які)
формат: *.srt

Збережено оригінальні розділи, як на Blu-ray.
MediaInfo
Код:
General
Unique ID                   : 207138546765542168223206915184707219190 (0x9BD56ED81F4123DEAFA180A93237AEF6)
Complete name               : Le coup du parapluie (1980) [3xUkr,Fra sub.Fra,Eng] 720p [Hurtom & HDClub].mkv
Format                      : Matroska
Format version              : Version 4 / Version 2
File size                   : 6.56 GiB
Duration                    : 1h 35mn
Overall bit rate            : 9 845 Kbps
Movie name                  : Укол парасолькою / Le coup du parapluie (1980) [3xUkr,Fra sub.Fra,Eng] 720p [Hurtom & HDClub]
Encoded date                : UTC 2015-05-18 12:15:30
Writing application         : mkvmerge v7.9.0 ('Birds') 64bit
Writing library             : libebml v1.3.1 + libmatroska v1.4.2
Attachements                : cover.jpg
DURATION                    : 01:31:17.114000000
NUMBER_OF_FRAMES            : 711
NUMBER_OF_BYTES             : 29930
_STATISTICS_WRITING_APP     : mkvmerge v7.9.0 ('Birds') 64bit
_STATISTICS_WRITING_DATE_UT : 2015-05-18 12:15:30
_STATISTICS_TAGS            : BPS DURATION NUMBER_OF_FRAMES NUMBER_OF_BYTES

Video
ID                          : 1
Format                      : AVC
Format/Info                 : Advanced Video Codec
Format profile              : [email protected]
Format settings, CABAC      : Yes
Format settings, ReFrames   : 9 frames
Codec ID                    : V_MPEG4/ISO/AVC
Duration                    : 1h 35mn
Bit rate                    : 8 500 Kbps
Width                       : 1 202 pixels
Height                      : 720 pixels
Display aspect ratio        : 5:3
Frame rate mode             : Constant
Frame rate                  : 24.000 fps
Color space                 : YUV
Chroma subsampling          : 4:2:0
Bit depth                   : 8 bits
Scan type                   : Progressive
Bits/(Pixel*Frame)          : 0.409
Stream size                 : 5.54 GiB (84%)
Title                       : Укол парасолькою / Le coup du parapluie / Укол зонтиком / Umbrella Coup (1980) 720p [HDCLUB-neofilm]
Writing library             : core 146 r2538 121396c
Encoding settings           : cabac=1 / ref=9 / deblock=1:-3:-3 / analyse=0x3:0x113 / me=umh / subme=11 / psy=1 / psy_rd=1.00:0.05 / mixed_ref=1 / me_range=24 / chroma_me=1 / trellis=2 / 8x8dct=1 / cqm=0 / deadzone=21,11 / fast_pskip=0 / chroma_qp_offset=-3 / threads=12 / lookahead_threads=2 / sliced_threads=0 / nr=0 / decimate=0 / interlaced=0 / bluray_compat=0 / constrained_intra=0 / bframes=8 / b_pyramid=2 / b_adapt=2 / b_bias=0 / direct=3 / weightb=1 / open_gop=0 / weightp=2 / keyint=240 / keyint_min=24 / scenecut=40 / intra_refresh=0 / rc_lookahead=50 / rc=2pass / mbtree=0 / bitrate=8500 / ratetol=1.0 / qcomp=0.60 / qpmin=0 / qpmax=69 / qpstep=4 / cplxblur=20.0 / qblur=0.5 / vbv_maxrate=50000 / vbv_bufsize=62500 / nal_hrd=none / filler=0 / ip_ratio=1.40 / pb_ratio=1.30 / aq=1:0.70
Language                    : French
Default                     : Yes
Forced                      : No

Audio #1
ID                          : 2
Format                      : AC-3
Format/Info                 : Audio Coding 3
Mode extension              : CM (complete main)
Format settings, Endianness : Big
Codec ID                    : A_AC3
Duration                    : 1h 35mn
Bit rate mode               : Constant
Bit rate                    : 192 Kbps
Channel(s)                  : 2 channels
Channel positions           : Front: L R
Sampling rate               : 48.0 KHz
Bit depth                   : 16 bits
Compression mode            : Lossy
Stream size                 : 131 MiB (2%)
Title                       : Dub [STB] 2.0 192 kbps [Hurtom-_oles]
Language                    : Ukrainian
Default                     : Yes
Forced                      : No

Audio #2
ID                          : 3
Format                      : AC-3
Format/Info                 : Audio Coding 3
Mode extension              : CM (complete main)
Format settings, Endianness : Big
Codec ID                    : A_AC3
Duration                    : 1h 35mn
Bit rate mode               : Constant
Bit rate                    : 192 Kbps
Channel(s)                  : 2 channels
Channel positions           : Front: L R
Sampling rate               : 48.0 KHz
Bit depth                   : 16 bits
Compression mode            : Lossy
Stream size                 : 131 MiB (2%)
Title                       : DVO [2+2] 2.0 192 kbps [Hurtom-_oles]
Language                    : Ukrainian
Default                     : No
Forced                      : No

Audio #3
ID                          : 4
Format                      : AC-3
Format/Info                 : Audio Coding 3
Mode extension              : CM (complete main)
Format settings, Endianness : Big
Codec ID                    : A_AC3
Duration                    : 1h 35mn
Bit rate mode               : Constant
Bit rate                    : 192 Kbps
Channel(s)                  : 2 channels
Channel positions           : Front: L R
Sampling rate               : 48.0 KHz
Bit depth                   : 16 bits
Compression mode            : Lossy
Stream size                 : 131 MiB (2%)
Title                       : DVO [K1] 2.0 192 kbps [Hurtom-_oles]
Language                    : Ukrainian
Default                     : No
Forced                      : No
DURATION                    : 01:35:25.952000000
NUMBER_OF_FRAMES            : 178936
NUMBER_OF_BYTES             : 137422848
_STATISTICS_WRITING_APP     : mkvmerge v7.9.0 ('Birds') 64bit
_STATISTICS_WRITING_DATE_UT : 2015-05-18 12:15:30
_STATISTICS_TAGS            : BPS DURATION NUMBER_OF_FRAMES NUMBER_OF_BYTES

Audio #4
ID                          : 5
Format                      :
Format/Info                 : Digital Theater Systems
Mode                        : 16
Format settings, Endianness : Big
Codec ID                    : A_DTS
Duration                    : 1h 35mn
Bit rate mode               : Constant
Bit rate                    : 768 Kbps
Channel(s)                  : 2 channels
Channel positions           : Front: L R
Sampling rate               : 48.0 KHz
Bit depth                   : 24 bits
Compression mode            : Lossy
Stream size                 : 524 MiB (8%)
Title                       : Original 2.0 768 kbps
Language                    : French
Default                     : No
Forced                      : No
DURATION                    : 01:35:25.952000000
NUMBER_OF_FRAMES            : 178936
NUMBER_OF_BYTES             : 137422848
_STATISTICS_WRITING_APP     : mkvmerge v7.9.0 ('Birds') 64bit
_STATISTICS_WRITING_DATE_UT : 2015-05-18 12:15:30
_STATISTICS_TAGS            : BPS DURATION NUMBER_OF_FRAMES NUMBER_OF_BYTES

Text #1
ID                          : 6
Format                      : UTF-8
Codec ID                    : S_TEXT/UTF8
Codec ID/Info               : UTF-8 Plain Text
Language                    : French
Default                     : No
Forced                      : No
DURATION                    : 01:35:25.952000000
NUMBER_OF_FRAMES            : 178936
NUMBER_OF_BYTES             : 137422848
_STATISTICS_WRITING_APP     : mkvmerge v7.9.0 ('Birds') 64bit
_STATISTICS_WRITING_DATE_UT : 2015-05-18 12:15:30
_STATISTICS_TAGS            : BPS DURATION NUMBER_OF_FRAMES NUMBER_OF_BYTES

Text #2
ID                          : 7
Format                      : UTF-8
Codec ID                    : S_TEXT/UTF8
Codec ID/Info               : UTF-8 Plain Text
Language                    : English
Default                     : No
Forced                      : No
DURATION                    : 01:35:26.006000000
NUMBER_OF_FRAMES            : 536813
NUMBER_OF_BYTES             : 549696512
_STATISTICS_WRITING_APP     : mkvmerge v7.9.0 ('Birds') 64bit
_STATISTICS_WRITING_DATE_UT : 2015-05-18 12:15:30
_STATISTICS_TAGS            : BPS DURATION NUMBER_OF_FRAMES NUMBER_OF_BYTES

Menu
00:00:00.000                : en:Chapter 01
00:07:34.375                : en:Chapter 02
00:17:58.541                : en:Chapter 03
00:22:59.791                : en:Chapter 04
00:30:31.291                : en:Chapter 05
00:38:46.500                : en:Chapter 06
00:45:14.500                : en:Chapter 07
00:54:12.000                : en:Chapter 08
01:01:24.208                : en:Chapter 09
01:08:22.458                : en:Chapter 10
01:16:47.208                : en:Chapter 11
01:25:19.541                : en:Chapter 12




Джерела та подяки: &
ріп відео - neofilm (HDClub); українські доріжка - _oles - зведення, MAKAPOHHIK, Tanat13, karvai0, xottabi4007 - запис з ТБ; фільмографії акторів та інформація про озвучення - Віктор (всі - Гуртом).


ЗАЛИШАЙТЕСЬ ЯКОМОГА ДОВШЕ НА РОЗДАЧІ!

СКАЧАВ САМ - ДАЙ СКАЧАТИ ІНШИМ


Срібний реліз (на рейтинг впливає 50% завантаженого)
 Трекер:    Зареєстрований   

Завантажити / скачати фільм українською



відео для новачків



 Зареєстрований:   2015-05-18 15:32
 Розмір:   6.56 GB 
 Оцінка фільму:   3.2/10 (Голосів: 17)
   
Інші релізи
orarura 
Новенький


З нами з: 03.09.11
Востаннє: 03.12.16
Повідомлень: 2

2016-08-26 22:05  
Які ще фільми з Рішаром є українською. Шукаю Іграшку, але ніде нема...
Anonymous 







2016-08-26 22:12  
orarura, в описі ж є посилання на фільмографію http://toloka.to/t30772

Додано через 1 хвилину 31 секунду:

+ гуглопошук по толоці за запитом "Рішар"

Додано через 26 секунд:

http://toloka.to/googlesearch.php

Ваш часовий пояс: GMT + 2 Години

Нова тема   Відповісти