Завантажити та скачати торренти українською


Greenjolly (Гринджоли) - Хай буде так (2006) [APE] | Pop-Rock

Нові коментарі

Нова тема   Відповісти
Останній раз роздавалося Myfordownloads (2016-10-09)
Автор Повідомлення
kolpavel 
VIP


З нами з: 04.05.14
Востаннє: 07.12.16
Повідомлень: 1059

2015-05-18 14:23  
Greenjolly (Гринджоли) - Хай буде так (2006) [APE] | Pop-Rock

Greenjolly (Гринджоли) - Хай буде так (2006) [APE] | Pop-Rock


Стиль: Pop Rock
Країна, місто: Україна, Івано-Франківськ
Сайти: Офіційний сайт
Видавець: M2BA/Music World
Виконавці:
Роман Калин — вокал
Юрій Попов — гітара
Юрій Гринюк — бас
Віктор Калин — клавішні
Костянтин Шмалько — ударні.
Пісні:
    01. Доброго вечора - (2:55).
    02. Ще можна - (3:00).
    03. Не вмирай - (3:15).
    04. Де літа нема - (3:39).
    05. Весілля - (3:01).
    06. Я не знаю слова "досить" - (3:46).
    07. Україна - (2:59).
    08. Пора - (3:37).
    09. Океан - (3:28).
    10. Знову сам - (3:08).
    11. Фани - (3:13).
    12. Хай буде так - (3:38).
    13. Тарас таман - (3:10).
    14. Гей, Іван - (3:19).
    15. Мало мені - (2:52).
    16. Разом нас багато - (2:44).

Тривалість: 00:51:50
Мова: українська
Аудіо-кодек: APE
Бітрейт: 1411 кб/с
Джерело: Інтернет
Додаткова інформація:
EAC:
Exact Audio Copy V1.0 beta 1 from 15. November 2010

EAC extraction logfile from 18. May 2015, 10:30

Greenjolly / Хай Буде Так

Used drive : Optiarc DVD RW AD-5260S Adapter: 2 ID: 0

Read mode : Secure
Utilize accurate stream : Yes
Defeat audio cache : Yes
Make use of C2 pointers : No

Read offset correction : 48
Overread into Lead-In and Lead-Out : No
Fill up missing offset samples with silence : Yes
Delete leading and trailing silent blocks : No
Null samples used in CRC calculations : Yes
Used interface : Native Win32 interface for Win NT & 2000

Used output format : Internal WAV Routines
Sample format : 44.100 Hz; 16 Bit; Stereo

TOC of the extracted CD

Track | Start | Length | Start sector | End sector
---------------------------------------------------------
1 | 0:00.00 | 2:55.38 | 0 | 13162
2 | 2:55.38 | 3:00.58 | 13163 | 26720
3 | 5:56.21 | 3:15.47 | 26721 | 41392
4 | 9:11.68 | 3:39.03 | 41393 | 57820
5 | 12:50.71 | 3:01.26 | 57821 | 71421
6 | 15:52.22 | 3:46.07 | 71422 | 88378
7 | 19:38.29 | 2:59.42 | 88379 | 101845
8 | 22:37.71 | 3:37.12 | 101846 | 118132
9 | 26:15.08 | 3:28.03 | 118133 | 133735
10 | 29:43.11 | 3:08.37 | 133736 | 147872
11 | 32:51.48 | 3:13.18 | 147873 | 162365
12 | 36:04.66 | 3:38.29 | 162366 | 178744
13 | 39:43.20 | 3:10.65 | 178745 | 193059
14 | 42:54.10 | 3:19.24 | 193060 | 208008
15 | 46:13.34 | 2:52.15 | 208009 | 220923
16 | 49:05.49 | 2:44.70 | 220924 | 233293

Range status and errors

Selected range

Filename D:\Temp\Greenjolly - Хай Буде Так.wav

Peak level 100.0 %
Extraction speed 0.2 X
Range quality 100.0 %
Test CRC 2BF58042
Copy CRC 2BF58042
Copy OK

No errors occurred

AccurateRip summary

Track 1 not present in database
Track 2 not present in database
Track 3 not present in database
Track 4 not present in database
Track 5 not present in database
Track 6 not present in database
Track 7 not present in database
Track 8 not present in database
Track 9 not present in database
Track 10 not present in database
Track 11 not present in database
Track 12 not present in database
Track 13 not present in database
Track 14 not present in database
Track 15 not present in database
Track 16 not present in database

None of the tracks are present in the AccurateRip database

End of status report

==== Log checksum 92202290B31B65F82AA50D4BD89036AB3C7FB77886813CAB2E032D76BC8A4A27 ====


Якщо Ви справді бажаєте підтримати українське - після прослуховування, якщо музика вам сподобалась, придбайте ліцензійний диск. Підтримаймо вітчизняних виконавців!


Срібний реліз (на рейтинг впливає 50% завантаженого)
 Трекер:    Зареєстрований   

Завантажити / скачати українську музику



відео для новачків



 Зареєстрований:   2015-05-18 14:23
 Розмір:   363 MB 
 Оцінка музики:   9.8/10 (Голосів: 4)
   
Оператор 
Свій


З нами з: 02.06.09
Востаннє: 08.12.16
Повідомлень: 142

2015-05-18 15:21  
Класний альбом в стилі "реггі". Мені сподобалось. Шкода, що хлопці не продовжили грати
kolpavel 
VIP


З нами з: 04.05.14
Востаннє: 07.12.16
Повідомлень: 1059

2015-05-18 15:26  
Думаю вони грають, але в других проектах.
ssTAss 
Модератор музики


З нами з: 05.07.08
Востаннє: 08.12.16
Повідомлень: 10947

2015-05-18 20:07  
це точно кацапський ріп?
сканів нема, тому ідентифікувати важко, хіба через джерело
якщо так, то видавець M2BA/Music World

kolpavel 
VIP


З нами з: 04.05.14
Востаннє: 07.12.16
Повідомлень: 1059

2015-05-18 20:38  
Мистерия Звука, M2BA на Озонi. А тут прямо на конвертi "Мир Музыки". От я i сам запутався.
Стрiлок 
Свій


З нами з: 25.03.15
Востаннє: 04.11.16
Повідомлень: 85

2015-05-18 20:48  
ssTAss написано:
кацапський ріп
ще одна піратка, з обрізаними тонами, якість понад усе Sad (1)
ssTAss 
Модератор музики


З нами з: 05.07.08
Востаннє: 08.12.16
Повідомлень: 10947

2015-05-18 21:36  
Стрiлок написано:
ще одна піратка

ну, це не піратка, а офіційно виданий в кацапстані диск http://www.musicagency.ru/portfolio.mhtml?PubID=3
Стрiлок написано:
з обрізаними тонами, якість понад усе

не завантажував і не слухав, але не проти, якщо Ви викладете український ріп 2005-го року від Ukrainian records
Цитата:
Того ж 2005 року з «Ґринджолами» підписав контракт лейбл «Ukrainian records» і до кінця року гурт випустив свій перший альбом під назвою «Хай буде так». Альбом складається з 16 композицій. На пісні «Весілля», "Я не знаю слова «досить» і «Разом нас багато» знято кліпи. У Росії альбом випустила російська компанія «M2BA/Music World». У російському варіанті гурт представлений як GreenJolly. Також було перевидано сингл «Разом нас багато» зі включеними відео та піснею на конкурс «Євробачення».


Додано через 1 хвилину 27 секунд:

Стрiлок написано:
з обрізаними тонами

обрізані частоти?
kolpavel, можна звіт аудіочекера? тільки не одним файлом, а потреково

kolpavel 
VIP


З нами з: 04.05.14
Востаннє: 07.12.16
Повідомлень: 1059

2015-05-18 22:23  
Стрiлок, май совiсть! Ти ж не качав! То як ти, перевiрив?
Стрiлок 
Свій


З нами з: 25.03.15
Востаннє: 04.11.16
Повідомлень: 85

2015-05-19 04:17  
kolpavel написано:
То як ти, первiрив?

kolpavel написано:
Джерело: Інтернет
думай, якщо знов захочеш поставити дурні питання
Ваш часовий пояс: GMT + 2 Години

Нова тема   Відповісти