Завантажити та скачати торренти українською


Укол парасолькою / Le coup du parapluie (1980) 3xUkr/Fra | Sub Fra/Eng

Нові коментарі

Нова тема   Відповісти
Автор Повідомлення
Anonymous 







2015-05-18 14:06  
Укол парасолькою / Le coup du parapluie (1980) 3xUkr/Fra | Sub Fra/Eng



Альтернативний постер



Жанр: комедія, кримінальний
Країна: Франція



Кінокомпанія: Gaumont, Gaumont International
Режисер: Жерар Урі / Gerard Oury
Актори: П’єр Рішар / Pierre Richard, Валері Мерес / Valerie Mairesse, Крістіна Мурілло / Christine Murillo, Гордон Мітчелл / Gordon Mitchell, Жерар Жюно / Gérard Jugnot, Моріс Ріш / Maurice Risch, Домінік Лаванант / Dominique Lavanant, Вітторіо Капріоле / Vittorio Caprioli, Жер Фроб / Gert Frobe, Ясен Хан / Yaseen Khan та інші

Сюжет:
П'єр Рішар у ролі актора, що знімається в рекламі корму для собак, йде на прослуховування на роль вбивці, помиляється дверима і потрапляє до мафіозі, які дають йому контракт на вбивство впливового торговця зброєю та "болгарську" парасольку з отруєною голкою. Професійний кілер, дізнавшись про це, йде по його сліду, але, як і годиться в гарній комедії, йому дико не щастить, тоді як Рішар дивом, сам того не знаючи, виплутується з будь-якої халепи неушкодженим, хоча за ним полюють і бойовики передбачуваної жертви.


Вікова категорія: 12+

Тривалість: 01:35:26
Якість:
Відео:
кодек: build 65
розмір кадру: 720x432
бітрейт: 1778 кбіт/с

Аудіо #1:
мова: українська
переклад: професійний дубльований
ролі дублювали: Ярослав Чорненький, Наталя Задніпровська, Наталя Поліщук, Анатолій Пашнін, Михайло Жонін, Андрій Самінін
кодек: 2.0
бітрейт: 192 кбіт/с

Аудіо #2:
мова: українська
переклад: двоголосий закадровий
ролі озвучили: Олександр Завальський і Ніна Касторф
кодек: 2.0
бітрейт: 192 кбіт/с

Аудіо #3:
мова: українська
переклад: двоголосий закадровий
ролі озвучили: Анатолій Зіновенко, Тетяна Зіновенко
кодек: 2.0
бітрейт: 192 кбіт/с

Аудіо #4:
мова: французька
переклад: оригінал
кодек: 2.0
бітрейт: 192 кбіт/с

Субтитри:
мова: французька (завантажити), англійська (завантажити)
тип: програмні (м'які)
формат: *.srt
MediaInfo
Код:
General
Complete name               : Le coup du parapluie (1980) [3xUkr,Fre] [Hurtom & HQClub].avi
Format                      : AVI
Format/Info                 : Audio Video Interleave
File size                   : 1.71 GiB
Duration                    : 1h 35mn
Overall bit rate            : 2 572 Kbps
Movie name                  : Укол парасолькою / Укол зонтиком / The Umbrella Coup / Le coup du parapluie (1980)
Director                    : igor911 & yaroslaigor
Genre                       : Comedy/Crime
Writing application         : VirtualDubModRus 1.5.10.2 (build 2540/release)
Copyright                   : Hurtom & HQClub
Comment                     : 18.05.2015

Video
ID                          : 0
Format                      : MPEG-4 Visual
Format profile              : Advanced [email protected]
Format settings, BVOP       : 1
Format settings, QPel       : No
Format settings, GMC        : No warppoints
Format settings, Matrix     : Custom
Codec ID                    :
Codec ID/Hint               :
Duration                    : 1h 35mn
Bit rate                    : 1 781 Kbps
Width                       : 720 pixels
Height                      : 432 pixels
Display aspect ratio        : 5:3
Frame rate                  : 24.000 fps
Color space                 : YUV
Chroma subsampling          : 4:2:0
Bit depth                   : 8 bits
Scan type                   : Progressive
Compression mode            : Lossy
Bits/(Pixel*Frame)          : 0.239
Stream size                 : 1.19 GiB (69%)
Writing library             : 65

Audio #1
ID                          : 1
Format                      : AC-3
Format/Info                 : Audio Coding 3
Mode extension              : CM (complete main)
Format settings, Endianness : Big
Codec ID                    : 2000
Duration                    : 1h 35mn
Bit rate mode               : Constant
Bit rate                    : 192 Kbps
Channel(s)                  : 2 channels
Channel positions           : Front: L R
Sampling rate               : 48.0 KHz
Bit depth                   : 16 bits
Compression mode            : Lossy
Stream size                 : 131 MiB (7%)
Alignment                   : Split accross interleaves
Interleave, duration        : 42 ms (1.00 video frame)
Interleave, preload duratio : 500 ms
Title                       : Dub [STB]

Audio #2
ID                          : 2
Format                      : AC-3
Format/Info                 : Audio Coding 3
Mode extension              : CM (complete main)
Format settings, Endianness : Big
Codec ID                    : 2000
Duration                    : 1h 35mn
Bit rate mode               : Constant
Bit rate                    : 192 Kbps
Channel(s)                  : 2 channels
Channel positions           : Front: L R
Sampling rate               : 48.0 KHz
Bit depth                   : 16 bits
Compression mode            : Lossy
Stream size                 : 131 MiB (7%)
Alignment                   : Split accross interleaves
Interleave, duration        : 42 ms (1.00 video frame)
Interleave, preload duratio : 500 ms
Title                       : DVO [2+2]

Audio #3
ID                          : 3
Format                      : AC-3
Format/Info                 : Audio Coding 3
Mode extension              : CM (complete main)
Format settings, Endianness : Big
Codec ID                    : 2000
Duration                    : 1h 35mn
Bit rate mode               : Constant
Bit rate                    : 192 Kbps
Channel(s)                  : 2 channels
Channel positions           : Front: L R
Sampling rate               : 48.0 KHz
Bit depth                   : 16 bits
Compression mode            : Lossy
Stream size                 : 131 MiB (7%)
Alignment                   : Split accross interleaves
Interleave, duration        : 42 ms (1.00 video frame)
Interleave, preload duratio : 500 ms
Title                       : DVO [K1]

Audio #4
ID                          : 4
Format                      : AC-3
Format/Info                 : Audio Coding 3
Mode extension              : CM (complete main)
Format settings, Endianness : Big
Codec ID                    : 2000
Duration                    : 1h 35mn
Bit rate mode               : Constant
Bit rate                    : 192 Kbps
Channel(s)                  : 2 channels
Channel positions           : Front: L R
Sampling rate               : 48.0 KHz
Bit depth                   : 16 bits
Compression mode            : Lossy
Stream size                 : 131 MiB (7%)
Alignment                   : Split accross interleaves
Interleave, duration        : 42 ms (1.00 video frame)
Interleave, preload duratio : 500 ms
Title                       : Original




Джерела та подяки: &
ріп відео, оригінальні звук та субтитри - yaroslaigor (HQClub); українські доріжка - _oles - зведення, MAKAPOHHIK, Tanat13, karvai0, xottabi4007 - запис з ТБ; фільмографії акторів та інформація про озвучення - Віктор (всі - Гуртом).


ЗАЛИШАЙТЕСЬ ЯКОМОГА ДОВШЕ НА РОЗДАЧІ!

СКАЧАВ САМ - ДАЙ СКАЧАТИ ІНШИМ


Срібний реліз (на рейтинг впливає 50% завантаженого)
 Трекер:    Зареєстрований   

Завантажити / скачати фільм українською



відео для новачків



 Зареєстрований:   2015-05-18 14:06
 Розмір:   1.71 GB 
 Оцінка фільму:   5.6/10 (Голосів: 25)
   
Інші релізи
Anonymous 







2015-05-18 16:06  
720p
boroznaya 
VIP


З нами з: 02.11.12
Востаннє: 02.12.16
Повідомлень: 1868

2015-07-26 21:55  
Як же я в дитинстві сміялась з цього фільму. Скільки ж про нього позитивних спогадів. Чесно кажучи, вже навіть і не пам'ятаю з яким перекладом переглядала, але свій відбиток у моїй свідомості фільм таки залишив. Гуртом! Величезне Вам спасибі за Вашу роботу! Фільм - просто шикарний, дубляж - неперевершений! Дай Вам Боже творчої наснаги на довгі роки, адже Ваша робота варта найвищої винагороди - людської пошани і вдяки! Шануймось!
ser.lisak 
Частий відвідувач


З нами з: 04.04.13
Востаннє: 30.11.16
Повідомлень: 28

2016-01-27 18:44  
Де можна знайти Іграшку Укр.?
Anonymous 







2016-01-27 18:56  
ser.lisak, ніде. Останнім часом транслювали по СТБ російською. Можливо, у когось є запис на VHS зі старих трансляцій.
ser.lisak 
Частий відвідувач


З нами з: 04.04.13
Востаннє: 30.11.16
Повідомлень: 28

2016-01-27 19:59  
Не так давно.Можливо в 2014 аьо в 2013 я дивився Ігращку на Новому Укр.дубль.
Anonymous 







2016-01-27 20:08  
ser.lisak, сумніваюсь, хтось би обов'язково записав, а так ні тут, ні на ексі немає.

Додано через 2 хвилини 48 секунд:

Якщо впевнені - пишіть на Новий, хай повторять трансляцію.

Додано через 1 хвилину 49 секунд:

ser.lisak написано:
Укр.дубль

Наше ТБ дуже рідко робить дубляж, тим більше до старих фільмів.

dreamer 
VIP


З нами з: 10.05.08
Востаннє: 26.11.16
Повідомлень: 305

2016-02-06 21:12  
стара,стара комедія...кіно наших батьків...й наше.Дякую.це класика комедійного французького кіно
Ваш часовий пояс: GMT + 2 Години

Нова тема   Відповісти