Завантажити та скачати торренти українською


Гапочка - Лови мої слова (2015) [FLAC] | Іndie Rock / Іndie Pop

Нові коментарі

Нова тема   Відповісти
Автор Повідомлення
kolpavel 
VIP


З нами з: 04.05.14
Востаннє: 07.12.16
Повідомлень: 1059

2015-05-18 12:37  
Гапочка - Лови мої слова (2015) [FLAC] | Іndie Rock / Іndie Pop

Гапочка - Лови мої слова (2015) [FLAC] | Іndie Rock / Іndie Pop


Стиль: Іndie Rock, Іndie Pop
Країна, місто: Україна, Київ
Сайти: Офіційний сайт
Видавець: гурт
Виконавці:
Катя Гапочка - вокал, клавішні
Євген Якшин - гітара
Олексій Руденко - бас
Пісні:

    01 - Лови мої слова
    02 - Губи прикуси
    03 - Незвичайні
    04 - Метко
    05 - Невесомость
    06 - Зникаю
    07 - Бути
    08 - На самоті

Тривалість: 00:38:18
Мова: українська, російська (4,5).
Аудіо-кодек: FLAC
Бітрейт: 1411 кб/с
Джерело: Інтернет
Додаткова інформація:
EAC:
Exact Audio Copy V1.0 beta 6 from 9. April 2015

Отчёт EAC об извлечении, выполненном 18. мая 2015, 12:43

Гапочка / Лови Мої Слова

Дисковод: TSSTcorpCDDVDW TS-L633J Adapter: 1 ID: 0

Режим чтения : Достоверность
Использование точного потока : Да
Отключение кэша аудио : Да
Использование указателей C2 : Нет

Коррекция смещения при чтении : 6
Способность читать области Lead-in и Lead-out : Нет
Заполнение пропущенных сэмплов тишиной : Да
Удаление блоков с тишиной в начале и конце : Нет
При вычислениях CRC использовались нулевые сэмплы : Да
Интерфейс : Встроенный Win32-интерфейс для Win NT/2000

Выходной формат : Пользовательский кодировщик
Выбранный битрейт : 1024 kBit/s
Качество : Высокий
Добавление ID3-тега : Нет
Утилита сжатия : C:\Program Files (x86)\Exact Audio Copy\Flac\flac.exe
Дополнительные параметры : -V -8 -T "Date=%year%" -T "Genre=%genre%" %source%

TOC извлечённого CD

Трек | Старт | Длительность | Начальный сектор | Конечный сектор
---------------------------------------------------------------------
1 | 0:00.00 | 3:59.00 | 0 | 17924
2 | 3:59.00 | 5:31.30 | 17925 | 42779
3 | 9:30.30 | 4:14.14 | 42780 | 61843
4 | 13:44.44 | 4:37.41 | 61844 | 82659
5 | 18:22.10 | 3:57.47 | 82660 | 100481
6 | 22:19.57 | 3:58.35 | 100482 | 118366
7 | 26:18.17 | 4:11.26 | 118367 | 137217
8 | 30:29.43 | 8:02.00 | 137218 | 173367

Характеристики диапазона извлечения и сообщения об ошибках

Выбранный диапазон

Имя файла C:\Music\Гапочка\FLAC LMS\Гапочка - Лови Мої Слова.wav

Пиковый уровень 99.9 %
Скорость извлечения 2.9 X
Качество диапазона 100.0 %
CRC теста 291C9FAF
CRC копии 291C9FAF
Копирование... OK

Ошибок не произошло

Конец отчёта

---- CUETools DB Plugin V2.1.6

[CTDB TOCID: 8u0yRpOeRXp10mWOg39YifmscRQ-] disk not present in database
Submit result: 8u0yRpOeRXp10mWOg39YifmscRQ- has been uploaded
(CUE):
REM GENRE Indie
REM DATE 2015
REM DISCID 51090708
REM COMMENT "ExactAudioCopy v1.0b6"
PERFORMER "Гапочка"
TITLE "Лови Мої Слова"
FILE "Гапочка - Лови Мої Слова.flac" WAVE
TRACK 01 AUDIO
TITLE "Лови Мої Слова"
PERFORMER "Гапочка"
INDEX 01 00:00:00
TRACK 02 AUDIO
TITLE "Губи Прикуси"
PERFORMER "Гапочка"
INDEX 00 03:57:01
INDEX 01 03:59:00
TRACK 03 AUDIO
TITLE "Незвичайні"
PERFORMER "Гапочка"
INDEX 00 09:28:31
INDEX 01 09:30:30
TRACK 04 AUDIO
TITLE "Метко"
PERFORMER "Гапочка"
INDEX 00 13:42:45
INDEX 01 13:44:44
TRACK 05 AUDIO
TITLE "Невесомость"
PERFORMER "Гапочка"
INDEX 00 18:20:11
INDEX 01 18:22:10
TRACK 06 AUDIO
TITLE "Зникаю"
PERFORMER "Гапочка"
INDEX 00 22:17:58
INDEX 01 22:19:57
TRACK 07 AUDIO
TITLE "Бути"
PERFORMER "Гапочка"
INDEX 00 26:16:18
INDEX 01 26:18:17
TRACK 08 AUDIO
TITLE "На Самоті"
PERFORMER "Гапочка"
INDEX 00 30:27:44
INDEX 01 30:29:43
Якщо Ви справді бажаєте підтримати українське - після прослуховування, якщо музика вам сподобалась, придбайте ліцензійний диск. Підтримаймо вітчизняних виконавців!


Срібний реліз (на рейтинг впливає 50% завантаженого)
 Трекер:    Зареєстрований   

Завантажити / скачати українську музику



відео для новачків



 Зареєстрований:   2015-05-18 12:37
 Розмір:   232 MB 
 Оцінка музики:   9.3/10 (Голосів: 6)
   
ssTAss 
Модератор музики


З нами з: 05.07.08
Востаннє: 07.12.16
Повідомлень: 10947

2015-05-18 20:16  
kolpavel написано:
Сайти: http://hapochka.com/

http://gapochka-music.com/
kolpavel написано:
Видавець: DK Records

звідки інфа? ніби сам гурт видав чи ні?

kolpavel 
VIP


З нами з: 04.05.14
Востаннє: 07.12.16
Повідомлень: 1059

2015-05-18 20:31  
Там де брав, видавця зараз взагалi видалили. Значить були питання. Тодi i я видалю. А сайт замiню. Дякую за науку.
ssTAss 
Модератор музики


З нами з: 05.07.08
Востаннє: 07.12.16
Повідомлень: 10947

2015-05-18 21:27  
kolpavel написано:
Видавець: iнтернет релiз

гурт

Ваш часовий пояс: GMT + 2 Години

Нова тема   Відповісти