Завантажити та скачати торренти українською


Зимова сплячка / Kis Uykusu (2014) 1080p Tur | Sub Ukr/Eng/Fre

Нові коментарі

Нова тема   Відповісти
Автор Повідомлення
micklecat 
Новенький


З нами з: 02.12.08
Востаннє: 09.05.16
Повідомлень: 5

2015-05-17 10:55  
Зимова сплячка / Kis Uykusu (2014) 1080p Tur | Sub Ukr/Eng/Fre

Зимова сплячка / Kis Uykusu (2014) 1080p Tur | Sub Ukr/Eng/Fre


Жанр: драма
Країна: Туреччина



Кінокомпанія: Zeynofilm
Режисер: Нурі Більге Джейлан
Актори: Халук Більгінер, Меліса Сьозен, Демет Акбаг

Золота пальмова гілка та приз ФІПРЕСІ в Каннах, 2014 р.

Сюжет:
Дія фільма відбувається в приватному готелі в Туреччині, провінція Каппадокія. Власник готелю, колишній актор Айдін, живе з дружиною Ніхаль та розлученою сестрою Незлою. Окрім готелю, у Айдіна є також кілька будинків у містечку, які він здає в оренду. Фільм являє собою картини з життя перелічених головних та кількох другорядних персонажів.
Не буду описувати всі достоїнства картини, золота пальмова гілка Каннського фестивалю говорить сама за себе. Скажу лиш, що це новий шедевр від Джейлана. Так, режисер за останні роки помітно змінився. Ранній Джейлан нагадував Тарковського і Антоніоні, а зараз з кожним новим фільмом він все більше нагадує Бергмана. Той теж любив копнути поглибше нутрощі людської душі.
Одну з основних ідей фільма можна висловити коротко словами одного з персонажів: люди не змінюються. Навіть у самому кінці стрічки глядачу може здатися "что вот-вот ДА, но... НЄТ!" (С)Голохвастов.
Від перекладача
Субтитри - українські, автор перекладу - ваш покірний слуга.
Сказати, що фільм було перекладати важко - це нічого не сказати. Фільм вийшов спершу з французькими субтитрами, а я ж у французькій мові - ні бєль мєс. Почекав появи англійських, почав перекладати і у деяких місцях помітив, що англійський текст якось не в'яжеться з тим, що відбувається на екрані. Спробував перекласти автоматом французькі субтитри з проблемного місця - і о! Смисл фрази змінився і став відповідати ситуації. Так до кінця кожну фразу і перекладав: англійську мову - сам, французьку - усереднюючи переклад з гугла і промта, а потім співставляючи переклад з англійської і французької, щоб точніше передати смисл. Та й то залишилась пара реплік, які в турецькому оригіналі, очевидно, звучать як якась дотепність, а в перекладі - і в англійському, і у французькому - не дуже ( Турецьких же субтитрів, на жаль, взагалі не було.
Тривалість: 03:16:45
Якість:
Відео:
кодек:
розмір кадру: 1920 x 804
бітрейт: 11500 кб/с

Аудіо:
мова: турецька
переклад: оригінал
кодек: 5.1
бітрейт: 1509 кб/с

Субтитри:
мова: українська
тип: програмні (м'які)
формат: *.srt
переклад: micklecat (з англійської)

Субтитри:
мова: англійська
тип: програмні (м'які)
формат: *.srt

Субтитри:
мова: французька
тип: програмні (м'які)
формат: *.srt
MediaInfo
General
Unique ID : 182688834167513499833263153066036121385 (0x897096F185C24EF986BA44E5D5E74F29)
Complete name : D:\Video recorded\Kis uykusu.mkv
Format : Matroska
Format version : Version 2
File size : 17.9 GiB
Duration : 3h 16mn
Overall bit rate : 13.0 Mbps
Encoded date : UTC 2015-05-11 12:16:06
Writing application : mkvmerge v7.9.0 ('Birds') 64bit
Writing library : libebml v1.3.1 + libmatroska v1.4.2
DURATION : 03:14:02.297000000
NUMBER_OF_FRAMES : 2657
NUMBER_OF_BYTES : 89661
_STATISTICS_WRITING_APP : mkvmerge v7.9.0 ('Birds') 64bit
_STATISTICS_WRITING_DATE_UT : 2015-05-11 12:16:06
_STATISTICS_TAGS : BPS DURATION NUMBER_OF_FRAMES NUMBER_OF_BYTES

Video
ID : 1
Format : AVC
Format/Info : Advanced Video Codec
Format profile : [email protected]
Format settings, CABAC : Yes
Format settings, ReFrames : 4 frames
Codec ID : V_MPEG4/ISO/AVC
Duration : 3h 16mn
Bit rate : 11.5 Mbps
Width : 1 920 pixels
Height : 804 pixels
Display aspect ratio : 2.40:1
Frame rate mode : Constant
Frame rate : 23.976 fps
Color space : YUV
Chroma subsampling : 4:2:0
Bit depth : 8 bits
Scan type : Progressive
Bits/(Pixel*Frame) : 0.311
Stream size : 15.4 GiB (86%)
Writing library : core 142 r2431 ac76440
Encoding settings : cabac=1 / ref=4 / deblock=1:-3:-3 / analyse=0x3:0x113 / me=umh / subme=11 / psy=1 / psy_rd=1.05:0.10 / mixed_ref=1 / me_range=48 / chroma_me=1 / trellis=2 / 8x8dct=1 / cqm=0 / deadzone=21,11 / fast_pskip=0 / chroma_qp_offset=-2 / threads=6 / lookahead_threads=1 / sliced_threads=0 / nr=0 / decimate=1 / interlaced=0 / bluray_compat=0 / constrained_intra=0 / bframes=6 / b_pyramid=2 / b_adapt=2 / b_bias=0 / direct=3 / weightb=1 / open_gop=0 / weightp=2 / keyint=250 / keyint_min=23 / scenecut=40 / intra_refresh=0 / rc_lookahead=40 / rc=2pass / mbtree=0 / bitrate=11500 / ratetol=2.0 / qcomp=0.70 / qpmin=0 / qpmax=69 / qpstep=4 / cplxblur=20.0 / qblur=0.5 / vbv_maxrate=40000 / vbv_bufsize=30000 / nal_hrd=none / filler=0 / ip_ratio=1.40 / pb_ratio=1.30 / aq=2:1.00
Language : English
Default : Yes
Forced : Yes
DURATION : 03:16:45.836000000
NUMBER_OF_FRAMES : 283057
NUMBER_OF_BYTES : 16960551983
_STATISTICS_WRITING_APP : mkvmerge v7.9.0 ('Birds') 64bit
_STATISTICS_WRITING_DATE_UT : 2015-05-11 12:16:06
_STATISTICS_TAGS : BPS DURATION NUMBER_OF_FRAMES NUMBER_OF_BYTES

Audio
ID : 2
Format :
Format/Info : Digital Theater Systems
Mode : 16
Format settings, Endianness : Big
Codec ID : A_DTS
Duration : 3h 16mn
Bit rate mode : Constant
Bit rate : 1 509 Kbps
Channel(s) : 6 channels
Channel positions : Front: L C R, Side: L R, LFE
Sampling rate : 48.0 KHz
Bit depth : 24 bits
Compression mode : Lossy
Stream size : 2.07 GiB (12%)
Language : Turkish
Default : Yes
Forced : Yes

Text #1
ID : 3
Format : UTF-8
Codec ID : S_TEXT/UTF8
Codec ID/Info : UTF-8 Plain Text
Language : Ukrainian
Default : Yes
Forced : Yes

Text #2
ID : 4
Format : UTF-8
Codec ID : S_TEXT/UTF8
Codec ID/Info : UTF-8 Plain Text
Language : English
Default : No
Forced : No

Text #3
ID : 5
Format : UTF-8
Codec ID : S_TEXT/UTF8
Codec ID/Info : UTF-8 Plain Text
Language : French
Default : No
Forced : No
Скріншоти
Джерело:
Особиста оцінка: 10 - без зайвих вагань рекомендую всім!


Золотий реліз (завантажене не впливає на рейтинг)
 Трекер:    Зареєстрований   

Завантажити / скачати фільм українською



відео для новачків



 Зареєстрований:   2015-05-17 10:55
 Розмір:   17.87 GB 
 Оцінка фільму:   10/10 (Голосів: 3)
   
Інші релізи
   Зимова сплячка / Kis Uykusu (2014) Tur | UkrSub micklecat  4 / 0   1.73 GB   2015-05-17 10:31 
ninja_london 
Новенький


З нами з: 22.12.14
Востаннє: 04.10.16
Повідомлень: 3

2015-05-17 14:11  
Золотий релiз - скажiть будь-ласка, чому порахувало в Завантажено?
igor911 
Відео Гуртом
Відео Гуртом


З нами з: 18.01.08
Востаннє: 03.12.16
Повідомлень: 5124

2015-05-17 14:19  
ninja_london, можливі дві причини: ви встигли завантажити до 13:18 (коли я поставив золото) і глюк трекера.
Ваш часовий пояс: GMT + 2 Години

Нова тема   Відповісти