Завантажити та скачати торренти українською


Брудний Гаррі / Dirty Harry (1971) 1080p Eng | sub Ukr/Eng

Нові коментарі

Нова тема   Відповісти
Автор Повідомлення
andrew_crasher 
Свій


З нами з: 31.01.12
Востаннє: 11.11.16
Повідомлень: 55

2015-05-17 06:16  
Брудний Гаррі / Dirty Harry (1971) 1080p Eng | sub Ukr/Eng

Брудний Гаррі / Dirty Harry (1971) 1080p Eng | sub Ukr/Eng


Жанр: Трилер, бойовик
Країна: США



Кінокомпанія: Warner Bros.
Режисер: Дон Сігел
Актори: Клінт Іствуд, Гаррі Гардіно, Енді Робінсон, Джон Вернон, Джон Ларч, Джон Мітчем

Сюжет:
Фільм "Брудний Гаррі" став черговою поворотною точкою у кар'єрі Клінта Іствуда. У 70-х роках він змінив звичний костюм героя вестерна і лихого наїзника, що запам'ятався по "спагетті-вестернах" 60-х, на форму поліцейського Гаррі Калахена на прізвисько 'Брудний Гаррі'. Гаррі повинен знайти і знешкодити вбивцю-маніяка на прізвисько Скорпіон, який тероризує все місто. Герой фільму не має наміру дотримуватися статуту поліцейського. Його Магнум 44-го калібру завжди з ним і готовий до бою, його принцип: "спочатку стріляти, потім розбиратися".


Тривалість: 01:42:29
Якість:
Відео:
кодек:
розмір кадру: 1920 х 800
бітрейт: 10500 кб/с
частота кадрів/сек: 23.976

Аудіо:
мова: англійська
переклад: оригінал
кодек: 5.1
бітрейт: 640 кб/с

Субтитри:
мова: українська
тип: програмні (м'які)
формат: *.srt
автор: andrew_crasher

Субтитри:
мова: англійська
тип: програмні (м'які)
формат: *.srt
MediaInfo

General
Unique ID : 208184226331348349797891913614044181333 (0x9C9ED2D3C8A2E1A3B0448188CDE43355)
Complete name : C:\Users\Andrii\Downloads\Гуртом\Dirty Harry (1971) [Ukr, Eng] 1080p [Hurtom] by andrew_crasher\Dirty Harry (1971) [Ukr, Eng] 1080p [Hurtom] by andrew_crasher (1).mkv
Format : Matroska
Format version : Version 4 / Version 2
File size : 7.95 GiB
Duration : 1h 42mn
Overall bit rate : 11.1 Mbps
Encoded date : UTC 2015-05-17 03:38:37
Writing application : mkvmerge v7.5.0 ('Glass Culture') 64bit built on Jan 4 2015 16:48:44
Writing library : libebml v1.3.1 + libmatroska v1.4.2
DURATION : 01:42:10.009000000
NUMBER_OF_FRAMES : 794
NUMBER_OF_BYTES : 48409
_STATISTICS_WRITING_APP : mkvmerge v7.5.0 ('Glass Culture') 64bit built on Jan 4 2015 16:48:44
_STATISTICS_WRITING_DATE_UTC : 2015-05-17 03:38:37
_STATISTICS_TAGS : BPS DURATION NUMBER_OF_FRAMES NUMBER_OF_BYTES

Video
ID : 1
Format : AVC
Format/Info : Advanced Video Codec
Format profile : [email protected]
Format settings, CABAC : Yes
Format settings, ReFrames : 5 frames
Format settings, GOP : N=1
Codec ID : V_MPEG4/ISO/AVC
Duration : 1h 42mn
Bit rate : 10.5 Mbps
Width : 1 920 pixels
Height : 800 pixels
Display aspect ratio : 2.40:1
Frame rate mode : Constant
Frame rate : 23.976 fps
Color space : YUV
Chroma subsampling : 4:2:0
Bit depth : 8 bits
Scan type : Progressive
Bits/(Pixel*Frame) : 0.284
Stream size : 7.33 GiB (92%)
Writing library : core 59 r859M ce13bb6
Encoding settings : cabac=1 / ref=5 / deblock=1:-3:-3 / analyse=0x3:0x133 / me=umh / subme=7 / me-prepass=0 / brdo=1 / mixed_ref=1 / me_range=24 / chroma_me=1 / trellis=0 / 8x8dct=1 / cqm=2 / deadzone=8,2 / chroma_qp_offset=0 / threads=6 / nr=0 / decimate=1 / mbaff=0 / fgo=6 / bframes=5 / b_pyramid=1 / b_adapt=1 / b_bias=0 / direct=3 / wpredb=1 / bime=1 / keyint=250 / keyint_min=25 / scenecut=40(pre) / rc=2pass / bitrate=10458 / ratetol=1.0 / rceq='blurCplx^(1-qComp)' / qcomp=1.00 / qpmin=10 / qpmax=51 / qpstep=4 / cplxblur=20.0 / qblur=0.5 / ip_ratio=1.40 / pb_ratio=1.18 / aq=2:0.60
Language : English
Default : Yes
Forced : No
DURATION : 01:42:29.028000000
NUMBER_OF_FRAMES : 147429
NUMBER_OF_BYTES : 8039613067
_STATISTICS_WRITING_APP : mkvmerge v7.5.0 ('Glass Culture') 64bit built on Jan 4 2015 16:48:44
_STATISTICS_WRITING_DATE_UTC : 2015-05-17 03:38:37
_STATISTICS_TAGS : BPS DURATION NUMBER_OF_FRAMES NUMBER_OF_BYTES

Audio
ID : 2
Format : AC-3
Format/Info : Audio Coding 3
Mode extension : CM (complete main)
Format settings, Endianness : Big
Codec ID : A_AC3
Duration : 1h 42mn
Bit rate mode : Constant
Bit rate : 640 Kbps
Channel(s) : 6 channels
Channel positions : Front: L C R, Side: L R, LFE
Sampling rate : 48.0 KHz
Bit depth : 16 bits
Compression mode : Lossy
Delay relative to video : 32ms
Stream size : 469 MiB (6%)
Language : English
Default : No
Forced : No

Text #1
ID : 3
Format : UTF-8
Codec ID : S_TEXT/UTF8
Codec ID/Info : UTF-8 Plain Text
Language : English
Default : No
Forced : No

Text #2
ID : 4
Format : UTF-8
Codec ID : S_TEXT/UTF8
Codec ID/Info : UTF-8 Plain Text
Language : Ukrainian
Default : No
Forced : No
Скріншоти




Джерело: &
Особиста оцінка: 10 - без зайвих вагань рекомендую всім!


Золотий реліз (завантажене не впливає на рейтинг)
 Трекер:    Зареєстрований   

Завантажити / скачати фільм українською



відео для новачків



 Зареєстрований:   2015-05-17 06:16
 Розмір:   7.95 GB 
 Оцінка фільму:   10/10 (Голосів: 9)
   
Jack_Daniels 
VIP


З нами з: 30.07.10
Востаннє: 03.12.16
Повідомлень: 297

2015-05-17 12:27  
HD ?
BrianWarner 
Новенький


З нами з: 10.12.14
Востаннє: 24.10.16
Повідомлень: 20

2015-07-09 09:57  
Дякую! Шкода, що тільки 1 частина.
Hentaihunter 
VIP


З нами з: 16.08.08
Востаннє: 04.12.16
Повідомлень: 2149

2015-07-09 11:58  
Cудячи за передостаннім скріншотом дякувати не варто.
andrew_crasher написано:

Субтитри:
мова: українська
тип: вбудовані (жорсткі)
формат: *.srt

Адмін як завжди смалить.

Kurya 
Частий відвідувач


З нами з: 08.05.08
Востаннє: 03.12.16
Повідомлень: 40

2016-07-29 19:51  
Панове, роздайте, будь ласка
Ваш часовий пояс: GMT + 2 Години

Нова тема   Відповісти