Завантажити та скачати торренти українською


Kozak System & Тарас Чубай - Пісні самонаведення (2014) [FLAC] | Folk / Rock

Нові коментарі

Нова тема   Відповісти
Автор Повідомлення
kolpavel 
VIP


З нами з: 04.05.14
Востаннє: 05.12.16
Повідомлень: 1059

2015-05-15 18:04  
Kozak System & Тарас Чубай - Пісні самонаведення (2014) [FLAC] | Folk / Rock

Kozak System & Тарас Чубай - Пісні самонаведення (2014) [FLAC] | Folk / Rock


Стиль: Folk Rock
Країна, місто: Україна, Київ
Сайти: Офіційний сайт
Видавець: Comp Music Ltd
Виконавці:
Володимир Шерстюк - бас
Сергій Борисенко - ударні
Іван Леньо - акордеон
Сашко Дем'яненко - гітара
Тарас Чубай - спів, гітара
Іван Ткаленко - бандура
Пісні:
    1. Гомін
    2. А вже років триста
    3. Ой, гук, мати, гук
    4. Ой, із-за гір
    5. Ой, там на горі
    6. До Тернополя
    7. Росте Антонич (Весна)
    8. Рана-любов
    9. Приїхали з-за Дунаю
    10. В глибокій долині
Скан диска
Kozak System & Тарас Чубай - Пісні самонаведення (2014) [FLAC] | Folk / Rock
Тривалість: 00:48:20
Мова: українська
Аудіо-кодек: FLAC
Бітрейт: 1411 кб/с
Джерело: Інтернет
Додаткова інформація:
EAC:
Exact Audio Copy V1.0 beta 1 from 15. November 2010

Отчёт EAC об извлечении, выполненном 5. ноября 2014, 23:04

Kozak System & Taras Chubai / Homin' Song

Дисковод: HL-DT-STDVDRAM GH60N Adapter: 0 ID: 0

Режим чтения : Достоверность
Использование точного потока : Да
Отключение кэша аудио : Да
Использование указателей C2 : Нет

Коррекция смещения при чтении : 667
Способность читать области Lead-in и Lead-out : Нет
Заполнение пропущенных сэмплов тишиной : Да
Удаление блоков с тишиной в начале и конце : Нет
При вычислениях CRC использовались нулевые сэмплы : Да
Интерфейс : Встроенный Win32-интерфейс для Win NT/2000

Выходной формат : Внутренние WAV-операции
Формат сэмплов : 44.100 Гц; 16 бит; стерео

TOC извлечённого CD

Трек | Старт | Длительность | Начальный сектор | Конечный сектор
---------------------------------------------------------------------
1 | 0:00.00 | 5:47.46 | 0 | 26070
2 | 5:47.46 | 5:07.38 | 26071 | 49133
3 | 10:55.09 | 4:26.72 | 49134 | 69155
4 | 15:22.06 | 4:46.25 | 69156 | 90630
5 | 20:08.31 | 4:57.29 | 90631 | 112934
6 | 25:05.60 | 4:20.27 | 112935 | 132461
7 | 29:26.12 | 4:03.28 | 132462 | 150714
8 | 33:29.40 | 4:00.36 | 150715 | 168750
9 | 37:30.01 | 6:18.64 | 168751 | 197164
10 | 43:48.65 | 4:31.71 | 197165 | 217560

Характеристики диапазона извлечения и сообщения об ошибках

Выбранный диапазон

Имя файла D:\TEST_audio\KozakSystem2014\Kozak System & Taras Chubai - Homin' Song.wav

Пиковый уровень 100.0 %
Скорость извлечения 0.1 X
Качество диапазона 99.9 %
CRC копии 5F88667B
Копирование... OK

Ошибок не произошло

AccurateRip: сводка

Трек 1 отсутствует в базе данных
Трек 2 отсутствует в базе данных
Трек 3 отсутствует в базе данных
Трек 4 отсутствует в базе данных
Трек 5 отсутствует в базе данных
Трек 6 отсутствует в базе данных
Трек 7 отсутствует в базе данных
Трек 8 отсутствует в базе данных
Трек 9 отсутствует в базе данных
Трек 10 отсутствует в базе данных

Ни одного трека нет в базе AccurateRip

Конец отчёта

==== Контрольная сумма отчёта 0CE0827F331A2151D6B9327717ADBDF82A659E1B1539A482FF7466BAC34602FD ====
(CUE):
REM GENRE Rock
REM DATE 2014
REM DISCID 740B540A
REM COMMENT "ExactAudioCopy v1.0b1"
PERFORMER "Kozak System & Taras Chubai"
TITLE "Homin' Song"
FILE "Kozak System & Taras Chubai - Homin' Song.flac" WAVE
TRACK 01 AUDIO
TITLE "Гомін"
PERFORMER "Kozak System & Taras Chubai"
INDEX 01 00:00:00
TRACK 02 AUDIO
TITLE "А вже років триста"
PERFORMER "Kozak System & Taras Chubai"
INDEX 01 05:47:46
TRACK 03 AUDIO
TITLE "Ой, гук, мати, гук"
PERFORMER "Kozak System & Taras Chubai"
INDEX 01 10:55:09
TRACK 04 AUDIO
TITLE "Ой, із-за гір"
PERFORMER "Kozak System & Taras Chubai"
INDEX 01 15:22:06
TRACK 05 AUDIO
TITLE "Ой, там - на горі"
PERFORMER "Kozak System & Taras Chubai"
INDEX 01 20:08:31
TRACK 06 AUDIO
TITLE "До Тернополя"
PERFORMER "Kozak System & Taras Chubai"
INDEX 01 25:05:60
TRACK 07 AUDIO
TITLE "Росте Антонич (Весна)"
PERFORMER "Kozak System & Taras Chubai"
INDEX 01 29:26:12
TRACK 08 AUDIO
TITLE "Рана-любов"
PERFORMER "Kozak System & Taras Chubai"
INDEX 01 33:29:40
TRACK 09 AUDIO
TITLE "Приїхали з-за Дунаю"
PERFORMER "Kozak System & Taras Chubai"
INDEX 01 37:30:01
TRACK 10 AUDIO
TITLE "В глибокій долині"
PERFORMER "Kozak System & Taras Chubai"
INDEX 01 43:48:65
log якостi:
-----------------------

DON'T MODIFY THIS FILE

-----------------------

PERFORMER: auCDtect Task Manager, ver. 1.5.1RC4 build 1.5.1.5
Copyright (c) 2008-2010 y-soft. All rights reserved
http://y-soft.org

ANALYZER: auCDtect: CD records authenticity detector, version 0.8.2
Copyright (c) 2004 Oleg Berngardt. All rights reserved.
Copyright (c) 2004 Alexander Djourik. All rights reserved.

FILE: Kozak System & Taras Chubai - Homin' Song.flac
Size: 359989798 Hash: DCCF5069E875EB9D71373277EBEC6155 Accuracy: -m0
Conclusion: CDDA 99%
Signature: 706A0074DB94D70A99BE7D04BB06FC85F04FD663


Якщо Ви справді бажаєте підтримати українське - після прослуховування, якщо музика вам сподобалась, придбайте ліцензійний диск. Підтримаймо вітчизняних виконавців!


Срібний реліз (на рейтинг впливає 50% завантаженого)
 Трекер:    Зареєстрований   

Завантажити / скачати українську музику



відео для новачків



 Зареєстрований:   2015-05-15 18:04
 Розмір:   345 MB 
 Оцінка музики:   9.9/10 (Голосів: 18)
   
Wolf1488 
VIP


З нами з: 20.10.09
Востаннє: 05.12.16
Повідомлень: 429

2015-05-15 18:33  
"Живи і люби" не маєте?
kolpavel 
VIP


З нами з: 04.05.14
Востаннє: 05.12.16
Повідомлень: 1059

2015-05-15 18:43  
Wolf1488, нажаль поки не маю.
Ваш часовий пояс: GMT + 2 Години

Нова тема   Відповісти