Завантажити та скачати торренти українською


VA - Сталевий промінь волі. Добровольці (2015) [FLAC] | Rock / Bard / RAC

Нові коментарі

Нова тема   Відповісти
Автор Повідомлення
Wolf1488 
VIP


З нами з: 20.10.09
Востаннє: 04.12.16
Повідомлень: 429

2015-05-14 02:10  
VA - Сталевий промінь волі. Добровольці (2015) [FLAC] | Rock / Bard / RAC

VA - Сталевий промінь волі. Добровольці (2015) [FLAC] | Rock / Bard / RAC


Стиль: Rock / Bard / RAC
Країна, місто: Україна
Сайти: Офіційний сайт
Видавець: Sva Stone
Пісні:
    1. КОМУ ВНИЗ та Арсеній Білодуб — Повстанець
    2. Мандри — Гради вогняні
    3. Олекса Бик та Єгор Сємілєтов — Добровольці
    4. Арсеній Білодуб — Політв’язень
    5. W. Angel’s Conquest — Spirit Of Freedom
    6. Сокира Перуна та Дана — Іду на смерть
    7. Joryj Kloc — Вогонь
    8. Nokturnal Mortum та Арсеній Білодуб — Слава Героям!
    9. Живосил Лютий — Аеропорт
    10. Широкий Лан — Валькірія
    11. Арсеній Білодуб — Націоналіст
    12. КОМУ ВНИЗ — Марш Норманів
    13. Inferno — Голос Крові
    14. Арсеній Білодуб, Андрій Бондаренко та Андрій Середа — Ми випрягли волів
    15. Сокира Перуна — Сталевий Промінь Волі

Тривалість: 01:08:36
Мова: українська (1-4, 6-15), англійська (5)
Аудіо-кодек: FLAC
Бітрейт: 819-1100 кб/с
Джерело: власний ріп
EAC
Exact Audio Copy V1.0 beta 3 from 29. August 2011

EAC extraction logfile from 13. May 2015, 15:14

Unknown Artist / Unknown Title

Used drive : PLDS DVD-RW DS8A8SH Adapter: 2 ID: 0

Read mode : Secure
Utilize accurate stream : Yes
Defeat audio cache : Yes
Make use of C2 pointers : No

Read offset correction : 6
Overread into Lead-In and Lead-Out : No
Fill up missing offset samples with silence : Yes
Delete leading and trailing silent blocks : No
Null samples used in CRC calculations : Yes
Used interface : Native Win32 interface for Win NT & 2000

Used output format : User Defined Encoder
Selected bitrate : 768 kBit/s
Quality : High
Add ID3 tag : No
Command line compressor : C:\Program Files (x86)\Exact Audio Copy\Flac\flac.exe
Additional command line options : -V -8 %source%

TOC of the extracted CD

Track | Start | Length | Start sector | End sector
---------------------------------------------------------
1 | 0:00.00 | 2:43.65 | 0 | 12289
2 | 2:43.65 | 4:17.10 | 12290 | 31574
3 | 7:01.00 | 2:58.03 | 31575 | 44927
4 | 9:59.03 | 5:34.44 | 44928 | 70021
5 | 15:33.47 | 7:20.25 | 70022 | 103046
6 | 22:53.72 | 6:27.50 | 103047 | 132121
7 | 29:21.47 | 4:34.02 | 132122 | 152673
8 | 33:55.49 | 5:44.03 | 152674 | 178476
9 | 39:39.52 | 4:03.42 | 178477 | 196743
10 | 43:43.19 | 5:16.29 | 196744 | 220472
11 | 48:59.48 | 5:02.35 | 220473 | 243157
12 | 54:02.08 | 1:28.69 | 243158 | 249826
13 | 55:31.02 | 4:47.66 | 249827 | 271417
14 | 60:18.68 | 2:39.67 | 271418 | 283409
15 | 62:58.60 | 5:36.40 | 283410 | 308649

Range status and errors

Selected range

Filename D:\Сокира Перуна\Сталевий промінь волі - Добровольці.wav

Peak level 95.0 %
Extraction speed 3.4 X
Range quality 100.0 %
Test CRC F097E5F4
Copy CRC F097E5F4
Copy OK

No errors occurred

End of status report

---- CUETools DB Plugin V2.1.3

[CTDB TOCID: qwmqnOi9wHCplerKL7US9bMDICY-] disk not present in database, Submit result: qwmqnOi9wHCplerKL7US9bMDICY- has been uploaded

==== Log checksum CF7F96AA8F3549659E463AC0C804B85A6552FEA951B6FDA9B301ADABAF758350 ====
audiochecker
AUDIOCHECKER v2.0 beta (build 457) - by Dester - [email protected]
~~~~~~~~~~~~~~~~~~~~~~~~~~~~~~~~~~

Started at: четвер, 14. 05. 2015. - 2:58.51
1 file found

1 -===- D:\Сокира Перуна\2015 - Сталевий промінь волі. Добровольці\Сталевий промінь волі - Добровольці.flac
Extracted successfully
Conclusion: this track is CDDA with probability 100%
Tempfile successfully deleted.

Finished at: четвер, 14. 05. 2015. - 3:07.10 (operation time: 0:08.19)


Якщо Ви справді бажаєте підтримати українське - після прослуховування, якщо музика вам сподобалась, придбайте ліцензійний диск. Підтримаймо вітчизняних виконавців!


Срібний реліз (на рейтинг впливає 50% завантаженого)
 Трекер:    Зареєстрований   

Завантажити / скачати українську музику



відео для новачків



 Зареєстрований:   2015-05-14 02:10
 Розмір:   494 MB 
 Оцінка музики:   10/10 (Голосів: 14)
   
c0nf1g 
Новенький


З нами з: 31.05.15
Востаннє: 26.11.16
Повідомлень: 1

2015-06-02 15:53  
вперше в житті спочатку придбав ліцензію, а потім скачав бо лінь конвертувати! :)
ssTAss 
Модератор музики


З нами з: 05.07.08
Востаннє: 04.12.16
Повідомлень: 10935

2016-09-10 22:01  
з нетерпінням чекаю на новий альбом від Sva Stone
Повстанець





Ваш часовий пояс: GMT + 2 Години

Нова тема   Відповісти