Завантажити та скачати торренти українською


Прапори наших батьків / Flags of Our Fathers (2006) 720p 2xUkr/Eng | Sub Eng

Нові коментарі

Нова тема   Відповісти
Автор Повідомлення
Anonymous 







2015-05-08 22:43  
Прапори наших батьків / Flags of Our Fathers (2006) 720p 2xUkr/Eng | Sub Eng



Альтернативні та оригінальні обкладинки та постери






повнорозмірні зображення відкриються по кліку (з натиснутим CTRL чи кліком середньою кнопкою мишки - у іншій вкладці)

Жанр: драма, історичний, військовий
Країна: США



Кінокомпанія: DreamWorks SKG, Warner Bros., Amblin Entertainment, Malpaso Productions
Режисер: Клінт Іствуд / Clint Eastwood
Актори: Раян Філліп / Ryan Phillippe, Джессі Бретфорд / Jesse Bradford, Адам Біч / Adam Beach, Джон Бенжамін Гіккі / John Benjamin Hickey, Джон Слеттері / John Slattery, Беррі Пеппер / Barry Pepper, Джеймі Белл / Jamie Bell, Пол Вокер / Paul Walker та інші

Сюжет:
Історія життя шести американських піхотинців, які підняли прапор на вершині гори Сурібачі під час битви при Іводзімі. Операція захоплення острова Іводзіма стала переломним моментом в ході Тихоокеанської кампанії США проти Японії навесні 1945 року...


Рейтинг MPAA: R - особам до 17 років обов'язкова присутність батьків або дорослого опікуна
Вікова категорія: 16+

Тривалість: 02:11:53
Якість: 720p
Відео:
кодек:
розмір кадру: 1280 x 528
бітрейт: 5476 кбіт/с

Аудіо # 1:
мова: українська
переклад: багатоголосий закадровий
кодек: 2.0 (стерео)
бітрейт: 192 кбіт/с

Аудіо # 2:
мова: українська
переклад: багатоголосий закадровий - Так Треба Продакшн на замовлення "Інтер"
ролі озвучили: Володимир Терещук, Юрій Гребельник і мабуть два жіночих голоси
кодек: 2.0
бітрейт: 192 кбіт/с

Аудіо # 3:
мова: англійська
переклад: оригінал
кодек: 5.1
бітрейт: 1510 кбіт/с

Субтитри:
мова: англійська
тип: програмні (м'які)
формат: *.srt
MediaInfo log
Код:
General
Unique ID                   : 249929805374787368470244652576943262174 (0xBC06BAC827979A9DAF22F77470AE49DE)
Complete name               : Flags of Our Fathers (2006) [2xUkr,Eng sub.Eng] 720p [Hurtom].mkv
Format                      : Matroska
Format version              : Version 4 / Version 2
File size                   : 6.79 GiB
Duration                    : 2h 11mn
Overall bit rate            : 7 370 Kbps
Movie name                  : Прапори наших батьків / Flags of Our Fathers (2006) [2xUkr,Eng sub.Eng] 720p [Hurtom]
Encoded date                : UTC 2015-05-11 21:08:11
Writing application         : mkvmerge v7.9.0 ('Birds') 64bit
Writing library             : libebml v1.3.1 + libmatroska v1.4.2
Attachements                : cover.jpg
DURATION                    : 02:11:53.760000000
NUMBER_OF_FRAMES            : 247305
NUMBER_OF_BYTES             : 189930240
_STATISTICS_WRITING_APP     : mkvmerge v7.9.0 ('Birds') 64bit
_STATISTICS_WRITING_DATE_UT : 2015-05-11 21:08:11
_STATISTICS_TAGS            : BPS DURATION NUMBER_OF_FRAMES NUMBER_OF_BYTES

Video
ID                          : 1
Format                      : AVC
Format/Info                 : Advanced Video Codec
Format profile              : [email protected]
Format settings, CABAC      : Yes
Format settings, ReFrames   : 11 frames
Codec ID                    : V_MPEG4/ISO/AVC
Duration                    : 2h 11mn
Bit rate                    : 5 476 Kbps
Width                       : 1 280 pixels
Height                      : 528 pixels
Display aspect ratio        : 2.40:1
Frame rate mode             : Constant
Frame rate                  : 23.976 fps
Color space                 : YUV
Chroma subsampling          : 4:2:0
Bit depth                   : 8 bits
Scan type                   : Progressive
Bits/(Pixel*Frame)          : 0.338
Stream size                 : 4.91 GiB (72%)
Title                       : Прапори наших батьків / Flags of Our Fathers (2006) 720p [Voland_]
Writing library             : core 100 r1659 57b2e56
Encoding settings           : cabac=1 / ref=11 / deblock=1:-3:-3 / analyse=0x3:0x113 / me=umh / subme=10 / psy=1 / psy_rd=1.00:0.20 / mixed_ref=1 / me_range=64 / chroma_me=1 / trellis=2 / 8x8dct=1 / cqm=0 / deadzone=21,11 / fast_pskip=0 / chroma_qp_offset=-3 / threads=6 / sliced_threads=0 / nr=0 / decimate=1 / interlaced=0 / constrained_intra=0 / bframes=6 / b_pyramid=2 / b_adapt=2 / b_bias=0 / direct=3 / weightb=1 / open_gop=0 / weightp=2 / keyint=250 / keyint_min=25 / scenecut=40 / intra_refresh=0 / rc_lookahead=40 / rc=2pass / mbtree=0 / bitrate=5476 / ratetol=1.0 / qcomp=0.60 / qpmin=10 / qpmax=51 / qpstep=4 / cplxblur=20.0 / qblur=0.5 / vbv_maxrate=50000 / vbv_bufsize=62500 / ip_ratio=1.40 / pb_ratio=1.30 / aq=1:1.00 / nal_hrd=none
Language                    : English
Default                     : Yes
Forced                      : No

Audio #1
ID                          : 2
Format                      : AC-3
Format/Info                 : Audio Coding 3
Mode extension              : CM (complete main)
Format settings, Endianness : Big
Codec ID                    : A_AC3
Duration                    : 2h 11mn
Bit rate mode               : Constant
Bit rate                    : 192 Kbps
Channel(s)                  : 2 channels
Channel positions           : Front: L R
Sampling rate               : 48.0 KHz
Bit depth                   : 16 bits
Compression mode            : Lossy
Stream size                 : 181 MiB (3%)
Title                       : MVO [ICTV] 2.0 192 kbps [Hurtom-patriot2305]
Language                    : Ukrainian
Default                     : Yes
Forced                      : No

Audio #2
ID                          : 3
Format                      : AC-3
Format/Info                 : Audio Coding 3
Mode extension              : CM (complete main)
Format settings, Endianness : Big
Codec ID                    : A_AC3
Duration                    : 2h 11mn
Bit rate mode               : Constant
Bit rate                    : 192 Kbps
Channel(s)                  : 2 channels
Channel positions           : Front: L R
Sampling rate               : 48.0 KHz
Bit depth                   : 16 bits
Compression mode            : Lossy
Stream size                 : 181 MiB (3%)
Title                       : MVO [Inter] 2.0 192 kbps [Hurtom-Romario_O]
Language                    : Ukrainian
Default                     : No
Forced                      : No

Audio #3
ID                          : 4
Format                      :
Format/Info                 : Digital Theater Systems
Mode                        : 16
Format settings, Endianness : Big
Codec ID                    : A_DTS
Duration                    : 2h 11mn
Bit rate mode               : Constant
Bit rate                    : 1 510 Kbps
Channel(s)                  : 6 channels
Channel positions           : Front: L C R, Side: L R, LFE
Sampling rate               : 48.0 KHz
Bit depth                   : 24 bits
Compression mode            : Lossy
Stream size                 : 1.39 GiB (20%)
Title                       : Original 5.1 1510 kbps
Language                    : English
Default                     : No
Forced                      : No

Text
ID                          : 5
Format                      : UTF-8
Codec ID                    : S_TEXT/UTF8
Codec ID/Info               : UTF-8 Plain Text
Language                    : English
Default                     : No
Forced                      : No

Код:
---[NoImage] avs [info]: 1280x528p 1:1 @ 24000/1001 fps (cfr)
---[NoImage] [info]: using SAR=1/1
---[NoImage] [info]: using cpu capabilities: MMX2 SSE2Fast SSSE3 FastShuffle SSE4.1 Cache64
---[NoImage] [info]: profile High, level 4.1
---[NoImage] [info]: frame I:1426  Avg QP:14.67  size:104603  PSNR Mean Y:48.63 U:53.86 V:54.30 Avg:49.70 Global:49.24
---[NoImage] [info]: frame P:44718 Avg QP:16.34  size: 44276  PSNR Mean Y:47.19 U:52.82 V:53.24 Avg:48.24 Global:47.40
---[NoImage] [info]: frame B:143600 Avg QP:16.98  size: 22877  PSNR Mean Y:46.16 U:51.99 V:52.42 Avg:47.32 Global:46.80
---[NoImage] [info]: consecutive B-frames:  1.8%  2.9%  8.3% 32.0% 20.5% 30.5%  4.0%
---[NoImage] [info]: mb I  I16..4: 18.0% 54.5% 27.5%
---[NoImage] [info]: mb P  I16..4:  3.9% 22.3%  4.8%  P16..4: 23.2% 22.0% 15.6%  0.0%  0.0%    skip: 8.2%
---[NoImage] [info]: mb B  I16..4:  0.6%  4.8%  0.9%  B16..8: 29.0% 17.6%  5.9%  direct:14.1%  skip:27.1%  L0:38.4% L1:33.8% BI:27.9%
---[NoImage] [info]: 8x8 transform intra:72.7% inter:35.6%
---[NoImage] [info]: direct mvs  spatial:98.7% temporal:1.3%
---[NoImage] [info]: coded y,uvDC,uvAC intra: 95.0% 68.5% 46.5% inter: 43.8% 19.3% 3.6%
---[NoImage] [info]: i16 v,h,dc,p: 15%  5% 33% 46%
---[NoImage] [info]: i8 v,h,dc,ddl,ddr,vr,hd,vl,hu: 11% 14% 19%  7%  9%  8% 10%  9% 13%
---[NoImage] [info]: i4 v,h,dc,ddl,ddr,vr,hd,vl,hu: 10%  9%  5%  9% 15% 13% 14% 11% 14%
---[NoImage] [info]: i8c dc,h,v,p: 48% 28% 16%  8%
---[NoImage] [info]: Weighted P-Frames: Y:3.6%
---[NoImage] [info]: ref P L0: 45.5%  8.8% 16.5%  7.9%  5.8%  4.5%  3.7%  2.3%  1.9%  1.6%  1.3%  0.1%  0.0%
---[NoImage] [info]: ref B L0: 73.0% 13.0%  5.1%  2.7%  2.0%  1.5%  1.3%  0.8%  0.5%  0.2%
---[NoImage] [info]: ref B L1: 94.8%  5.2%
---[NoImage] [info]: SSIM Mean Y:0.9879510 (19.190db)
---[NoImage] [info]: PSNR Mean Y:46.420 U:52.203 V:52.625 Avg:47.554 Global:46.947 kb/s:5473.09




Джерела та подяки: &
ріп відео, оригінальні звук та субтитри - Voland_ (рутрекер); українські доріжки - patriot2305 (1), Romario_O (2) - зведення, slavik_v_z, Sando7, POMEO - запис з ТБ аудіо # 1, robotron005 - аудіо # 2; українізовані постери - yuraflash, Gelios; фільмографії акторів та інформація про озвучення - Віктор (всі - Гуртом).

Особиста оцінка: 8 - мені сподобалося

Листи з Іводзіми / Letters from Iwo Jima (2006) 720p Ukr/Jap | Sub Ukr/Eng

ЗАЛИШАЙТЕСЬ ЯКОМОГА ДОВШЕ НА РОЗДАЧІ!

СКАЧАВ САМ - ДАЙ СКАЧАТИ ІНШИМ


 Трекер:    Зареєстрований   

Завантажити / скачати фільм українською



відео для новачків



 Зареєстрований:   2015-05-12 00:24
 Розмір:   6.79 GB 
 Оцінка фільму:   5.2/10 (Голосів: 19)
   
Інші релізи
Стрiлок 
Свій


З нами з: 25.03.15
Востаннє: 04.11.16
Повідомлень: 85

2015-05-13 02:37  
igor911 написано:
шести американських
хто дивився, тут також замовчують, що українець підняв прапор, як наймит в американських військах?

Anonymous 







2015-05-13 07:08  
Стрiлок, не потрібно тут епатажити "наймитами", Майкл очевидно був громадянином США...
don pedro 
Попереджень: 1
Попереджень: 1 


З нами з: 29.06.11
Востаннє: 07.12.16
Повідомлень: 8761

2015-05-13 07:50  
Стрiлок
Той прапор підняв громадянин США Майкл Стренко.

Стрiлок 
Свій


З нами з: 25.03.15
Востаннє: 04.11.16
Повідомлень: 85

2015-05-14 02:07  
igor911 написано:
очевидно був громадянином США
він отримав громадянство автоматично, бо батько українець його вже мав, але декрет (свідоцтво про громадянство), який видають зазвичай новим американцям ніколи Михайло Стренко не мав. Михайло народився в українському містечку в колишній Чехословаччині в родині лемків... Коли почали підіймати архіви, саме завдяки завзятості дипломата - шукачів словацьких героїв (бо вони думали, що він чистокровний Словак) у 2008 році США визнає Українця повноцінним американцем і посмертно видає йому декрет.
aalleexx85 
Відео Гуртом - фільмокрай
Відео Гуртом - фільмокрай


З нами з: 27.07.10
Востаннє: 07.12.16
Повідомлень: 1139

2015-05-14 15:35  

пан Струмок 
Свій


З нами з: 19.02.13
Востаннє: 06.12.16
Повідомлень: 123

2015-05-14 18:03  
Гоже кіно, пан Іствуд гідний козарлюга. На черзі дня Листи.
Anonymous 







2015-06-02 17:12  
По темі прапорів наших батьків, але вже не про Іводзіму: Богдан Копистянський, боєць 101 повітряно-десантної дивізії США з українським прапором у В'єтнамі.

Ua.bos_01 
VIP


З нами з: 22.06.15
Востаннє: 06.12.16
Повідомлень: 1291

2016-02-28 21:02  
Чудовий фільм! Це один з тих фільмів, які я переглянув від самісінького початку і до самого завершення титрів! Чудово розкривається тематика всього жахіття війни, розділення на Героїв та боягузів. Також досить вдало показана вся суть вигоди затягування війни довбаними політиканами, для нас, сучасної України, це більш ніж просто актуально. Особливо відзначу героїчно зображену роль нашого українця Майка Стренка, світла пам'ять воїну-Герою. Дещо для себе відкрив нове з історії битви за острів Іво. Однозначно раджу фільм до перегляду
Ваш часовий пояс: GMT + 2 Години

Нова тема   Відповісти