Завантажити та скачати торренти українською


Листи з Іводзіми / Letters From Iwo Jima (2006) 720p Ukr/Jap | Sub Ukr/Eng

Нові коментарі

Нова тема   Відповісти
Автор Повідомлення
Anonymous 







2015-05-08 22:21  
Листи з Іводзіми / Letters from Iwo Jima (2006) 720p Ukr/Jap | Sub Ukr/Eng



Альтернативні та оригінальні обкладинки і постери




повнорозмірні зображення відкриються по кліку (з натиснутим CTRL чи кліком середньою кнопкою мишки - у іншій вкладці)


Жанр: драма, військовий, історичний
Країна: США

Оскар та Золотий глобус 2007 р.

Кінокомпанія: DreamWorks SKG, Warner Bros., Malpaso Productions, Amblin Entertainment
Режисер: Клінт Іствуд / Clint Eastwood
Актори: Кен Ватанабе / Ken Watanabe, Кадзунарі Ніномія / Kazunari Ninomiya, Рьо Касе / Ryô Kase, Шідо Накамура / Shidô Nakamura, Хіроші Ватанабе / Hiroshi Watanabe, Такума Банда / Takumi Bando, Юкі Мацудзакі / Yuki Matsuzaki, Такаші Ямагуті / Takashi Yamaguchi, Нае / Nae, Еіжіро Озакі / Eijiro Ozaki, Нобумаса Сакаґамі / Nobumasa Sakagami, Лукас Елліот Еберл / Lucas Elliot Eberl, Стів Санта Секійоші / Steve Santa Sekiyoshi та інші

Сюжет:
В основу фільму покладено збірку листів генерала Тадаміті Курібаясі, що вийшов під редакцією Цуйоко Йосіди. Фільм "Листи з Іводзіми" є складовою дилогії, що розповідає про битву за острів Іводзіма під час Другої світової війни, і показує події з японської сторони. З боку американців події показані у фільмі "Прапори наших батьків".
Фільм розповідає про битву за острів Іводзіма, важливий стратегічний пункт на підступах до Японії, під час Другої світової війни. Командувати обороною було призначено генерала Курібаясі, який відразу ж взявся налагоджувати лінії захисту, застосовуючи нетрадиційні погляди і підходи не тільки на тактику, але і на взаємини офіцерів з солдатами. Все це викликало невдоволення підлеглих йому командирів, підкріплене тим фактом, що генерал колись проходив стажування в Америці. Паралельно розвивається лінія, яка розповідає про простого солдата Сайґо, колишнього пекаря, а нині вимушеного копати траншеї і терпіти закиди начальства.


Рейтинг MPAA: R - особам до 17 років обов'язкова присутність батьків або дорослого опікуна
Вікова категорія: 16+

Тривалість: 02:20:37
Якість: 720p
Відео:
кодек:
розмір кадру: 1280 х 536
бітрейт: 4500 кбіт/с

Аудіо # 1:
мова: українська
переклад: багатоголосий закадровий - Так Треба Продакшн
ролі озвучили: Дмитро Терещук, Анатолій Пашнін і один чи два жіночих голоси
кодек: 2.0
бітрейт: 192 кбіт/с

Аудіо # 2:
мова: японська
переклад: оригінал
кодек: 5.1
бітрейт: 640 кбіт/с

Субтитри # 1:
мова: українська
тип: програмні (м'які)
формат: *.srt

Субтитри # 2:
мова: англійська
тип: програмні (м'які)
формат: *.srt

Збережено оригінальні розділи, як на Blu-ray.
MediaInfo
Код:
General
Unique ID                   : 188609441907853412336062021107693015202 (0x8DE4DB7139FEDFD4B71734C2165E50A2)
Complete name               : Letters from Iwo Jima (2006) [Ukr,Jap sub.Ukr,Eng] 720p [Hurtom].mkv
Format                      : Matroska
Format version              : Version 4 / Version 2
File size                   : 5.24 GiB
Duration                    : 2h 20mn
Overall bit rate            : 5 335 Kbps
Movie name                  : Листи з Іводзіми / Letters from Iwo Jima (2006) [Ukr,Jap sub.Ukr,Eng] 720p [Hurtom]
Encoded date                : UTC 2015-05-12 16:45:16
Writing application         : mkvmerge v7.9.0 ('Birds') 64bit
Writing library             : libebml v1.3.1 + libmatroska v1.4.2
Attachements                : cover.jpg
DURATION                    : 02:20:37.344000000
NUMBER_OF_FRAMES            : 263667
NUMBER_OF_BYTES             : 202496256
_STATISTICS_WRITING_APP     : mkvmerge v7.9.0 ('Birds') 64bit
_STATISTICS_WRITING_DATE_UT : 2015-05-12 16:45:16
_STATISTICS_TAGS            : BPS DURATION NUMBER_OF_FRAMES NUMBER_OF_BYTES

Video
ID                          : 1
Format                      : AVC
Format/Info                 : Advanced Video Codec
Format profile              : [email protected]
Format settings, CABAC      : Yes
Format settings, ReFrames   : 12 frames
Codec ID                    : V_MPEG4/ISO/AVC
Duration                    : 2h 20mn
Bit rate                    : 4 500 Kbps
Width                       : 1 280 pixels
Height                      : 536 pixels
Display aspect ratio        : 2.40:1
Frame rate mode             : Constant
Frame rate                  : 23.976 fps
Color space                 : YUV
Chroma subsampling          : 4:2:0
Bit depth                   : 8 bits
Scan type                   : Progressive
Bits/(Pixel*Frame)          : 0.274
Stream size                 : 4.32 GiB (82%)
Title                       : Листи з Іводзіми / Letters from Iwo Jima / Письма с Иводзимы (2006) [RightSiZE]
Writing library             : core 144 r2525 40bb568
Encoding settings           : cabac=1 / ref=12 / deblock=1:-3:-3 / analyse=0x3:0x113 / me=umh / subme=10 / psy=1 / psy_rd=1.00:0.00 / mixed_ref=1 / me_range=48 / chroma_me=1 / trellis=2 / 8x8dct=1 / cqm=1 / deadzone=21,11 / fast_pskip=0 / chroma_qp_offset=-1 / threads=6 / lookahead_threads=1 / sliced_threads=0 / nr=0 / decimate=1 / interlaced=0 / bluray_compat=0 / constrained_intra=0 / bframes=8 / b_pyramid=2 / b_adapt=2 / b_bias=0 / direct=3 / weightb=1 / open_gop=0 / weightp=2 / keyint=230 / keyint_min=23 / scenecut=40 / intra_refresh=0 / rc_lookahead=40 / rc=2pass / mbtree=0 / bitrate=4500 / ratetol=1.0 / qcomp=0.60 / qpmin=2 / qpmax=48 / qpstep=4 / cplxblur=20.0 / qblur=0.5 / vbv_maxrate=62500 / vbv_bufsize=78125 / nal_hrd=none / filler=0 / ip_ratio=1.00 / pb_ratio=1.00 / aq=3:0.65
Language                    : English
Default                     : Yes
Forced                      : No
DURATION                    : 02:20:37.429000000
NUMBER_OF_FRAMES            : 202296
NUMBER_OF_BYTES             : 4746058088
_STATISTICS_WRITING_APP     : mkvmerge v7.9.0 ('Birds') 64bit
_STATISTICS_WRITING_DATE_UT : 2015-05-12 16:45:16
_STATISTICS_TAGS            : BPS DURATION NUMBER_OF_FRAMES NUMBER_OF_BYTES

Audio #1
ID                          : 2
Format                      : AC-3
Format/Info                 : Audio Coding 3
Mode extension              : CM (complete main)
Format settings, Endianness : Big
Codec ID                    : A_AC3
Duration                    : 2h 20mn
Bit rate mode               : Constant
Bit rate                    : 192 Kbps
Channel(s)                  : 2 channels
Channel positions           : Front: L R
Sampling rate               : 48.0 KHz
Bit depth                   : 16 bits
Compression mode            : Lossy
Stream size                 : 193 MiB (4%)
Title                       : MVO [TTP-ICTV,2015] 2.0 192 kbps [Hurtom-omm,slavik_v_z]
Language                    : Ukrainian
Default                     : Yes
Forced                      : No

Audio #2
ID                          : 3
Format                      : AC-3
Format/Info                 : Audio Coding 3
Mode extension              : CM (complete main)
Format settings, Endianness : Big
Codec ID                    : A_AC3
Duration                    : 2h 20mn
Bit rate mode               : Constant
Bit rate                    : 640 Kbps
Channel(s)                  : 6 channels
Channel positions           : Front: L C R, Side: L R, LFE
Sampling rate               : 48.0 KHz
Bit depth                   : 16 bits
Compression mode            : Lossy
Stream size                 : 644 MiB (12%)
Title                       : Original 5.1 640 kbps
Language                    : Japanese
Default                     : No
Forced                      : No

Text #1
ID                          : 4
Format                      : UTF-8
Codec ID                    : S_TEXT/UTF8
Codec ID/Info               : UTF-8 Plain Text
Title                       : Ukr full [DVD R5]
Language                    : Ukrainian
Default                     : No
Forced                      : No

Text #2
ID                          : 5
Format                      : UTF-8
Codec ID                    : S_TEXT/UTF8
Codec ID/Info               : UTF-8 Plain Text
Title                       : Eng full
Language                    : English
Default                     : No
Forced                      : No

Menu
00:00:00.000                : en:We Soldiers Dig
00:05:12.145                : en:Kuribiyashi's Arrival
00:10:40.640                : en:Coordination for Real War
00:13:15.628                : en:Embarassments
00:17:18.329                : en:Nishi's Honest Opinion
00:23:44.381                : en:Change in Strategy
00:27:26.228                : en:A Kempeitai Among Us
00:31:59.584                : en:Your Dad Will Come Home
00:37:59.861                : en:Until We Are Dead
00:41:05.922                : en:Enemy Bombs
00:47:07.658                : en:Address to the Troops
00:51:15.698                : en:Belts From Home
00:54:13.083                : en:Emptying the Pot
00:57:00.500                : en:Enemy Landing
01:00:20.450                : en:Life and Death Orders
01:04:22.692                : en:Die with Honor
01:09:10.813                : en:Inflamed
01:11:04.177                : en:Run for Motoyama
01:13:53.220                : en:At Sword's Point
01:17:02.660                : en:Who's In Charge Here?
01:22:35.159                : en:No Reinforcements
01:24:57.801                : en:Questioning Sam
01:28:59.042                : en:Shimizu's Disgrace
01:34:18.111                : en:Farewell Party
01:37:01.024                : en:Just a Letter
01:38:59.976                : en:Nishi's Farewell
01:45:49.260                : en:Surrender with Me
01:50:14.691                : en:Let This Be a Lesson
01:55:28.922                : en:You Look Familiar
01:58:44.951                : en:Song From the Homeland
02:03:17.181                : en:Final Attack
02:07:05.243                : en:Still Japan
02:13:24.205                : en:Rediscovered Voices; End Credits
Оригінал <----------> Ріп






Джерела та подяки: &
ріп відео, оригінальні звук та субтитри - RightSiZE (HDbits), vlaluk (HDClub); українська доріжка - omm - зведення, slavik_v_z - запис з ТБ; українські субтитри - DVD R5, українізовані постери - Gelios, Воїн; фільмографія та інформація про озвучення - Віктор (всі - Гуртом).

Прапори наших батьків / Flags of Our Fathers (2006) 720p 2xUkr/Eng | Sub Eng


ЗАЛИШАЙТЕСЬ ЯКОМОГА ДОВШЕ НА РОЗДАЧІ!

СКАЧАВ САМ - ДАЙ СКАЧАТИ ІНШИМ


 Трекер:    Зареєстрований   

Завантажити / скачати фільм українською



відео для новачків



 Зареєстрований:   2015-05-12 19:11
 Розмір:   5.24 GB 
 Оцінка фільму:   3.1/10 (Голосів: 13)
   
Estranded 
VIP


З нами з: 09.02.14
Востаннє: 03.12.16
Повідомлень: 835

2015-05-13 19:39  
Порекомендуйте подібні фільми про другу світову, будь ласка.
Anonymous 







2015-05-13 19:54  
Брати по зброї / Band of Brothers (2001), Тихий океан / The Pacific (2010), Врятувати рядового Райана / Saving Private Ryan (1998), Підводний човен / Das Boot (1981), Касабланка / Casablanca (1942)

Додано через 1 хвилину 16 секунд:

ІІ світова: апокаліпсис / Apocalypse – La 2ème guerre mondiale (2009) (документалка)

Додано через 35 секунд:

Список Шиндлера, Життя прекрасне

Додано через 4 хвилини 55 секунд:

Імперія сонця / Empire of the Sun (1987), Діти Хуан Ші / The Children of Huang Shi (2008)

Додано через 42 секунди:

Перл-Харбор / Pearl Harbor (2001)

don pedro 
Попереджень: 1
Попереджень: 1 


З нами з: 29.06.11
Востаннє: 03.12.16
Повідомлень: 8724

2015-05-13 20:07  
Estranded

"Нексорений" (2014)

Серіали "Брати по зброї" і "Тихий океан".

Estranded 
VIP


З нами з: 09.02.14
Востаннє: 03.12.16
Повідомлень: 835

2015-05-14 16:29  
don pedro
igor911
Ок, дякуюHappy деякі вже бачив, але більшість ні. Буде що глянути.

Ваш часовий пояс: GMT + 2 Години

Нова тема   Відповісти