Завантажити та скачати торренти українською


У темному-темному лісі / Into the Woods (2014) 720p-mini

Нові коментарі

Нова тема   Відповісти
Автор Повідомлення
Drool 
VIP


З нами з: 17.04.10
Востаннє: 10.12.16
Повідомлень: 1270

2015-05-06 12:43  
У темному-темному лісі / Into the Woods (2014) 720p-mini

Жанр: пригодницький, комедія, фентезі, мюзікл
Країна: США, Велика Британія, Канада



Кінокомпанія: Lucamar Productions, Marc Platt Productions, Walt Disney Pictures
Режисер: Роб Маршал
Актори: Меріл Стріп, Емілі Блант, Джеймс Корден, Анна Кендрік, Кріс Пайн, Джонні Деп, Деніел Гаттлстоун, Крістін Баранскі, Теммі Бланчард, Люсі Панч, Трейсі Уллмен, Лілла Кроуфорд, Саймон Расселл Біл, Джоанна Райдінґ

Сюжет:
Попелюшка мріє потрапити на бал. Пекар, колись проклятий Відьмою, і його Дружина журяться через те, що у них немає дитини. Джек хоче, щоб його корова нарешті дала молоко, а його Мати мріє бути багатою. Червоній Шапочці дуже потрібен гостинець для Бабусі, яка живе в лісі... і, може бути, трохи ласощів для себе. Нарешті, Відьма, яка живе по сусідству з пекарями, мріє повернути собі молодість і красу, які вона втратила. Для цього вона пропонує пекарю, в обмін на зняття прокляття, допомогти їй і добути необхідні складові для чарівного напою: корову, білу, як молоко, плащ, червоний як кров, пасмо волосся, жовте, як кукурудза, і золоті туфельки...


Тривалість: 02:04:45
Якість: 720p-mini
Відео:
кодек:
розмір кадру: 1280х536
бітрейт: 2612 кб/с

Аудіо:
мова: українська
переклад: професійний дубльований
кодек: 5.1
бітрейт: 384 кб/с

Джерело звуку:

Субтитри:
мова: українська
тип: програмні (м'які) | на пісні
формат: *.srt
Info + MediaInfo
[info]: frame I:1199 Avg QP:15,59 size: 93033
[info]: frame P:37475 Avg QP:18,13 size: 29258
[info]: frame B:140801 Avg QP:20,82 size: 8775
[info]: consecutive B-frames: 1,4% 1,5% 8,7% 17,3% 19,5% 43,8% 4,3% 0,6% 0,7% 0,5% 0,6% 0,5% 0,5%
[info]: mb I I16..4: 7,5% 72,5% 20,0%
[info]: mb P I16..4: 0,4% 8,4% 1,3% P16..4: 30,3% 36,7% 11,9% 2,5% 0,4% skip: 8,2%
[info]: mb B I16..4: 0,0% 0,9% 0,2% B16..8: 35,4% 17,4% 2,4% direct: 3,6% skip:40,1% L0:39,9% L1:47,7% BI:12,4%
[info]: 8x8 transform intra:81,6% inter:59,4%
[info]: direct mvs spatial:98,7% temporal:1,3%
[info]: coded y,uvDC,uvAC intra: 92,3% 86,8% 68,3% inter: 16,8% 13,5% 3,0%
[info]: i16 v,h,dc,p: 11% 10% 11% 68%
[info]: i8 v,h,dc,ddl,ddr,vr,hd,vl,hu: 12% 7% 5% 10% 14% 14% 13% 13% 13%
[info]: i4 v,h,dc,ddl,ddr,vr,hd,vl,hu: 12% 6% 5% 9% 16% 14% 14% 11% 13%
[info]: i8c dc,h,v,p: 46% 20% 18% 16%
[info]: Weighted P-Frames: Y:15,5% UV:10,4%
[info]: ref P L0: 61,5% 8,8% 12,6% 5,6% 3,6% 2,6% 2,0% 1,1% 0,8% 0,7% 0,6% 0,1% 0,0%
[info]: ref B L0: 87,5% 7,0% 2,6% 1,0% 0,6% 0,5% 0,3% 0,2% 0,1% 0,1%
[info]: ref B L1: 94,4% 5,6%
[info]: kb/s:2611,49

General
Unique ID : 264996188486387507712874507314877215079 (0xC75C68D2126399280F1E5C9848BCB167)
Complete name : /mnt/disk_d/Video/Into.the.Woods.2014.Ukr.Dub.iTunes..720p-mini.UAGet.mkv
Format : Matroska
Format version : Version 2
File size : 2.61 GiB
Duration : 2h 4mn
Overall bit rate : 3 001 Kbps
Writing application : HandBrake rev0
Writing library : libmkv 0.6.5
TITLE : У темному-темному лісі / Into the Woods (2014) 720p-mini -=UAGet=-
ARTIST : Меріл Стріп, Емілі Блант, Джеймс Корден, Анна Кендрік, Кріс Пайн, Джонні Деп
DIRECTOR : Роб Маршал
DATE_RELEASED : 2014
GENRE : пригодницький, комедія, фентезі
SYNOPSIS : Попелюшка мріє потрапити на бал. Пекар, колись проклятий Відьмою, і його Дружина журяться через те, що у них немає дитини. Джек хоче, щоб його корова нарешті дала молоко, а його Мати мріє бути багатою. Червоній Шапочці дуже потрібен гостинець для Бабусі, яка живе в лісі... і, може бути, трохи ласощів для себе. Нарешті, Відьма, яка живе по сусідству з пекарями, мріє повернути собі молодість і красу, які вона втратила. Для цього вона пропонує пекарю, в обмін на зняття прокляття, допомогти їй і добути необхідні складові для чарівного напою: корову, білу, як молоко, плащ, червоний як кров, пасмо волосся, жовте, як кукурудза, і золоті туфельки...

Video
ID : 1
Format : AVC
Format/Info : Advanced Video Codec
Format profile : [email protected]
Format settings, CABAC : Yes
Format settings, ReFrames : 11 frames
Codec ID : V_MPEG4/ISO/AVC
Duration : 2h 4mn
Bit rate : 2 612 Kbps
Width : 1 280 pixels
Height : 536 pixels
Display aspect ratio : 2.40:1
Frame rate mode : Constant
Frame rate : 23.976 fps
Color space : YUV
Chroma subsampling : 4:2:0
Bit depth : 8 bits
Scan type : Progressive
Bits/(Pixel*Frame) : 0.159
Stream size : 2.23 GiB (85%)
Writing library : core 142 r2389 956c8d8
Encoding settings : cabac=1 / ref=12 / deblock=1:-3:-3 / analyse=0x3:0x133 / me=umh / subme=11 / psy=1 / psy_rd=1,10:0,15 / mixed_ref=1 / me_range=64 / chroma_me=1 / trellis=2 / 8x8dct=1 / cqm=0 / deadzone=21,11 / fast_pskip=0 / chroma_qp_offset=-3 / threads=6 / lookahead_threads=1 / sliced_threads=0 / nr=0 / decimate=1 / interlaced=0 / bluray_compat=0 / constrained_intra=0 / bframes=12 / b_pyramid=1 / b_adapt=2 / b_bias=0 / direct=3 / weightb=1 / open_gop=0 / weightp=2 / keyint=240 / keyint_min=24 / scenecut=40 / intra_refresh=0 / rc=2pass / mbtree=0 / bitrate=2612 / ratetol=1,0 / qcomp=1,00 / qpmin=0 / qpmax=69 / qpstep=4 / cplxblur=20,0 / qblur=0,5 / ip_ratio=1,40 / pb_ratio=1,30 / aq=2:0,60
Language : English
Default : Yes
Forced : No
Color primaries : BT.709
Transfer characteristics : BT.709
Matrix coefficients : BT.709

Audio
ID : 2
Format : AC-3
Format/Info : Audio Coding 3
Mode extension : CM (complete main)
Format settings, Endianness : Big
Codec ID : A_AC3
Duration : 2h 4mn
Bit rate mode : Constant
Bit rate : 384 Kbps
Channel(s) : 6 channels
Channel positions : Front: L C R, Side: L R, LFE
Sampling rate : 48.0 KHz
Bit depth : 16 bits
Compression mode : Lossy
Stream size : 343 MiB (13%)
Language : Ukrainian
Default : Yes
Forced : No

Text
ID : 3
Format : UTF-8
Codec ID : S_TEXT/UTF8
Codec ID/Info : UTF-8 Plain Text
Language : Ukrainian
Default : Yes
Forced : No
Скріншоти




Джерело:
Особиста оцінка: 8 - мені сподобалося


 Трекер:    Зареєстрований   

Завантажити / скачати фільм українською



відео для новачків



 Зареєстрований:   2015-05-08 11:01
 Розмір:   2.61 GB 
 Оцінка фільму:   9.3/10 (Голосів: 16)
   
bot 
робот


З нами з: 30.09.07
Востаннє: 26.05.05
Повідомлень: 16054

2015-05-06 12:43  
Тему перенесено з Фільми в HD до форуму Анонси релізів


Drool

bot 
робот


З нами з: 30.09.07
Востаннє: 26.05.05
Повідомлень: 16054

2015-05-08 11:01  
Тему перенесено з Анонси релізів до форуму Фільми в HD


Drool

Dellariver 
Свій


З нами з: 14.01.12
Востаннє: 10.12.16
Повідомлень: 127

2015-06-04 23:14  
Як на мене нудне
mancunian 
Новенький


З нами з: 23.10.11
Востаннє: 10.12.16
Повідомлень: 23

2016-04-10 17:39  
класний фільм під філософський настрій
Ваш часовий пояс: GMT + 2 Години

Нова тема   Відповісти