Завантажити та скачати торренти українською


Аліса в Задзеркаллі / Alice Through the Looking Glass (1998) 720p Ukr/Eng

Нові коментарі

Нова тема   Відповісти
Автор Повідомлення
Anonymous 







2015-05-06 11:19  
Аліса в Задзеркаллі / Alice Through the Looking Glass (1998) 720p Ukr/Eng



Оригінальні обкладинки та постери






повнорозмірні зображення відкриються по кліку (з натиснутим CTRL чи кліком середньою кнопкою мишки - у іншій вкладці)


Жанр: фентезі, сімейний
Країна: Велика Британія



Кінокомпанія: Projector Productions, Channel 4 Television Corporation, IAC Film, Baltic Media Centre, Isle of Man Film Commission
Режисер: Джон Гендерсон / John Henderson
Актори: Кейт Бекінсейл / Kate Beckinsale, Єн Гольм / Ian Holm, Джонатан Бейлі / Jonathan Bailey, Десмонд Баррітт / Desmond Barrit, Джон Кешен / John Cashen, Стів Куґан / Steve Coogan, Шарлотт Керлі / Charlotte Curley, Брайан Джилкс / Brian Gilks, Пенелопа Вілтон / Penelope Wilton, Джеффрі Палмер / Geoffrey Palmer, Шан Філліпс / Siân Phillips, Марк Воррен / Marc Warren та інші

Сюжет:
Сучасна адаптація однойменної книги Льюїса Керрола "Аліса в Задзеркаллі". На цей раз в ролі Аліси опиняється мати (Кейт Бекінсейл), яка засинає читаючи казку своїй дочці. З задзеркальної кімнати Аліса потрапляє в задзеркальний сад живих квітів, де зустрічає Червону Королеву і стає Білим пішаком. Її чекають дивовижні пригоди у казковій країні!...


Вікова категорія: 0+

Тривалість: 01:26:45
Якість: 720p
Відео:
кодек:
розмір кадру: 960 х 720
бітрейт: 5695 кбіт/с

Аудіо # 1:
мова: українська
переклад: багатоголосий закадровий - Так Треба Продакшн на замовлення "Enter-фільм"
кодек: 2.0 (стерео)
бітрейт: 192 кбіт/с

Аудіо # 2:
мова: англійська
переклад: оригінал
кодек: 5.1
бітрейт: 1509 кбіт/с

Збережено оригінальні розділи, як на Blu-ray.
MediaInfo
Код:
General
Unique ID                   : 182827656640056834155274193277881424737 (0x898B536B76D4D463A06821EC36B81B61)
Complete name               : Alice Through the Looking Glass (1998) [Ukr,Eng] 720p [Hurtom].mkv
Format                      : Matroska
Format version              : Version 4 / Version 2
File size                   : 4.48 GiB
Duration                    : 1h 26mn
Overall bit rate            : 7 399 Kbps
Movie name                  : Аліса в Задзеркаллі / Alice Through the Looking Glass (1998) [Ukr,Eng] 720p [Hurtom]
Encoded date                : UTC 2015-05-06 06:34:08
Writing application         : mkvmerge v7.8.0 ('River Man') 64bit built on Mar 27 2015 16:31:37
Writing library             : libebml v1.3.1 + libmatroska v1.4.2
Attachements                : cover.jpg
DURATION                    : 01:26:45.280000000
NUMBER_OF_FRAMES            : 162665
NUMBER_OF_BYTES             : 124926720
_STATISTICS_WRITING_APP     : mkvmerge v7.8.0 ('River Man') 64bit built on Mar 27 2015 16:31:37
_STATISTICS_WRITING_DATE_UT : 2015-05-06 06:34:08
_STATISTICS_TAGS            : BPS DURATION NUMBER_OF_FRAMES NUMBER_OF_BYTES

Video
ID                          : 1
Format                      : AVC
Format/Info                 : Advanced Video Codec
Format profile              : [email protected]
Format settings, CABAC      : Yes
Format settings, ReFrames   : 5 frames
Codec ID                    : V_MPEG4/ISO/AVC
Duration                    : 1h 26mn
Bit rate                    : 5 695 Kbps
Width                       : 960 pixels
Height                      : 720 pixels
Display aspect ratio        : 4:3
Frame rate mode             : Constant
Frame rate                  : 23.976 fps
Color space                 : YUV
Chroma subsampling          : 4:2:0
Bit depth                   : 8 bits
Scan type                   : Progressive
Bits/(Pixel*Frame)          : 0.344
Stream size                 : 3.36 GiB (75%)
Title                       : Аліса в Задзеркаллі / Alice Through the Looking Glass (1998) 720p [RUSTED]
Writing library             : core 142 r2431 ac76440
Encoding settings           : cabac=1 / ref=5 / deblock=1:-3:-3 / analyse=0x3:0x133 / me=umh / subme=8 / psy=1 / psy_rd=1.00:0.15 / mixed_ref=1 / me_range=16 / chroma_me=1 / trellis=1 / 8x8dct=1 / cqm=0 / deadzone=21,11 / fast_pskip=0 / chroma_qp_offset=-4 / threads=18 / lookahead_threads=3 / sliced_threads=0 / nr=0 / decimate=1 / interlaced=0 / bluray_compat=0 / constrained_intra=0 / bframes=3 / b_pyramid=2 / b_adapt=2 / b_bias=0 / direct=3 / weightb=1 / open_gop=0 / weightp=2 / keyint=230 / keyint_min=22 / scenecut=40 / intra_refresh=0 / rc_lookahead=50 / rc=2pass / mbtree=1 / bitrate=5695 / ratetol=1.0 / qcomp=0.60 / qpmin=10 / qpmax=69 / qpstep=4 / cplxblur=20.0 / qblur=0.5 / ip_ratio=1.40 / aq=1:1.00
Language                    : English
Default                     : Yes
Forced                      : No
DURATION                    : 01:26:45.284000000
NUMBER_OF_FRAMES            : 124802
NUMBER_OF_BYTES             : 3705280218
_STATISTICS_WRITING_APP     : mkvmerge v7.8.0 ('River Man') 64bit built on Mar 27 2015 16:31:37
_STATISTICS_WRITING_DATE_UT : 2015-05-06 06:34:08
_STATISTICS_TAGS            : BPS DURATION NUMBER_OF_FRAMES NUMBER_OF_BYTES

Audio #1
ID                          : 2
Format                      : AC-3
Format/Info                 : Audio Coding 3
Mode extension              : CM (complete main)
Format settings, Endianness : Big
Codec ID                    : A_AC3
Duration                    : 1h 26mn
Bit rate mode               : Constant
Bit rate                    : 192 Kbps
Channel(s)                  : 2 channels
Channel positions           : Front: L R
Sampling rate               : 48.0 KHz
Bit depth                   : 16 bits
Compression mode            : Lossy
Stream size                 : 119 MiB (3%)
Title                       : MVO [TTP-EnterFilm] 2.0 192 [Hurtom-taraskill1,dvorsky]
Language                    : Ukrainian
Default                     : Yes
Forced                      : No

Audio #2
ID                          : 3
Format                      :
Format/Info                 : Digital Theater Systems
Mode                        : 16
Format settings, Endianness : Big
Codec ID                    : A_DTS
Duration                    : 1h 26mn
Bit rate mode               : Constant
Bit rate                    : 1 509 Kbps
Channel(s)                  : 6 channels
Channel positions           : Front: L C R, Side: L R, LFE
Sampling rate               : 48.0 KHz
Bit depth                   : 16 bits
Compression mode            : Lossy
Stream size                 : 936 MiB (20%)
Title                       : Original 5.1 1509 kbps
Language                    : English
Default                     : No
Forced                      : No

Menu
00:00:00.000                : en:00:00:00.000
00:07:31.451                : en:00:07:31.451
00:14:04.844                : en:00:14:04.844
00:20:29.228                : en:00:20:29.228
00:30:47.846                : en:00:30:47.846
00:36:23.181                : en:00:36:23.181
00:44:55.693                : en:00:44:55.693
00:49:58.996                : en:00:49:58.996
00:58:51.528                : en:00:58:51.528
01:06:42.999                : en:01:06:42.999
01:12:01.317                : en:01:12:01.317
01:20:10.805                : en:01:20:10.805




Джерела та подяки:
ріп відео, оригінальний звук - RUSTED; українська доріжка - taraskill1 - зведення, dvorsky - запис з ТБ; українізований постер - thefir; фільмографії акторів та інформація про озвучення - Віктор (всі - Гуртом).


ЗАЛИШАЙТЕСЬ ЯКОМОГА ДОВШЕ НА РОЗДАЧІ!

СКАЧАВ САМ - ДАЙ СКАЧАТИ ІНШИМ


Срібний реліз (на рейтинг впливає 50% завантаженого)
 Трекер:    Зареєстрований   

Завантажити / скачати фільм українською



відео для новачків



 Зареєстрований:   2015-05-06 11:19
 Розмір:   4.48 GB 
 Оцінка фільму:   4.6/10 (Голосів: 17)
   
Інші релізи
Ваш часовий пояс: GMT + 2 Години

Нова тема   Відповісти