Завантажити та скачати торренти українською


Морський бій / Battleship (2012) 720p-mini (60fps)

Нові коментарі

Нова тема   Відповісти
Автор Повідомлення
Drool 
VIP


З нами з: 17.04.10
Востаннє: 03.12.16
Повідомлень: 1262

2015-05-06 08:12  
Морський бій / Battleship (2012) 720p-mini (60fps)

Жанр: екшн, фантастика, триллер
Країна: США



Кінокомпанія: Battleship Delta Productions, Film 44, Hasbro, Ponysound, Stuber Productions; мейджор – Universal Pictures International
Режисер: Пітер Берг
Актори: Тейлор Кітч, Лайам Нісон, Бруклін Декер, Александр Скарсгаард, Ріанна

Сюжет:
Ми надсилаємо сигнали в космос і чекаємо відповіді. Але чи впевнені ми, що хочемо її отримати? Що якщо прибульці потенційно небезпечні? У 2009 році на конференції у Вашингтоні астронавт Едгар Мітчелл, який побував на Місяці, зробив сенсаційну заяву про існування позаземного життя. Тепер ми знаємо, контакт не просто можливий, він неминучий!


Тривалість: 02:11:14
Якість: 720p-mini
Відео:
кодек:
розмір кадру: 1280х534
бітрейт: 6427 кб/с
частота кадрів: 59.940 кадрів/с

Аудіо:
мова: українська
переклад: професійний дубльований | by Zeus62
кодек: 5.1
бітрейт: 448 кб/с

Субтитри:
мова: українська
тип: програмні (м'які) форсовані
формат: *.srt
MediaInfo
General
Unique ID : 321671394952702638435616183312215343103 (0xF1FFA83CE5C376903F0BB8C630CA7FFF)
Complete name : /mnt/disk_d/Video/Battleship.2012.Ukr.Dub.Line..720p-mini.60fps.mkv
Format : Matroska
Format version : Version 4 / Version 2
File size : 6.43 GiB
Duration : 2h 11mn
Overall bit rate : 7 015 Kbps
Movie name : Морський бій / Battleship (2012) 720p-mini [60 fps] [EXCLUSIF]
Encoded date : UTC 2015-05-06 05:18:26
Writing application : mkvmerge v7.7.0 ('Six Voices') 64bit built on Apr 26 2015 19:42:39
Writing library : libebml v1.3.1 + libmatroska v1.4.2
DURATION : 02:08:36.208000000
NUMBER_OF_FRAMES : 33
NUMBER_OF_BYTES : 1756
_STATISTICS_WRITING_APP : mkvmerge v7.7.0 ('Six Voices') 64bit built on Apr 26 2015 19:42:39
_STATISTICS_WRITING_DATE_UTC : 2015-05-06 05:18:26
_STATISTICS_TAGS : BPS DURATION NUMBER_OF_FRAMES NUMBER_OF_BYTES

Video
ID : 1
Format : AVC
Format/Info : Advanced Video Codec
Format profile : [email protected]
Format settings, CABAC : Yes
Format settings, ReFrames : 8 frames
Codec ID : V_MPEG4/ISO/AVC
Duration : 2h 11mn
Bit rate : 6 427 Kbps
Width : 1 280 pixels
Height : 534 pixels
Display aspect ratio : 2.40:1
Frame rate mode : Constant
Frame rate : 59.880 fps
Original frame rate : 59.940 fps
Color space : YUV
Chroma subsampling : 4:2:0
Bit depth : 8 bits
Scan type : Progressive
Bits/(Pixel*Frame) : 0.157
Stream size : 5.89 GiB (92%)
Title : Морський бій / Battleship (2012) 720p-mini [60 fps] by EXCLUSIF
Writing library : core 138 r2358 9e941d1
Encoding settings : cabac=1 / ref=8 / deblock=1:-3:-2 / analyse=0x3:0x133 / me=umh / subme=9 / psy=1 / psy_rd=1.00:0.00 / mixed_ref=1 / me_range=24 / chroma_me=1 / trellis=2 / 8x8dct=1 / cqm=0 / deadzone=21,11 / fast_pskip=0 / chroma_qp_offset=-2 / threads=6 / lookahead_threads=1 / sliced_threads=0 / nr=0 / decimate=0 / interlaced=0 / bluray_compat=0 / constrained_intra=0 / bframes=5 / b_pyramid=2 / b_adapt=2 / b_bias=0 / direct=3 / weightb=1 / open_gop=0 / weightp=2 / keyint=599 / keyint_min=59 / scenecut=40 / intra_refresh=0 / rc_lookahead=60 / rc=crf / mbtree=1 / crf=18.0 / qcomp=0.60 / qpmin=0 / qpmax=69 / qpstep=4 / ip_ratio=1.40 / aq=1:1.00
Default : Yes
Forced : Yes
DURATION : 02:11:14.884000000
NUMBER_OF_FRAMES : 472021
NUMBER_OF_BYTES : 6460195106
_STATISTICS_WRITING_APP : mkvmerge v7.7.0 ('Six Voices') 64bit built on Apr 26 2015 19:42:39
_STATISTICS_WRITING_DATE_UTC : 2015-05-06 05:18:26
_STATISTICS_TAGS : BPS DURATION NUMBER_OF_FRAMES NUMBER_OF_BYTES

Audio
ID : 2
Format : AC-3
Format/Info : Audio Coding 3
Mode extension : CM (complete main)
Format settings, Endianness : Big
Codec ID : A_AC3
Duration : 2h 11mn
Bit rate mode : Constant
Bit rate : 448 Kbps
Channel(s) : 6 channels
Channel positions : Front: L C R, Side: L R, LFE
Sampling rate : 48.0 KHz
Bit depth : 16 bits
Compression mode : Lossy
Stream size : 421 MiB (6%)
Title : ukr 5.1 448 kb/s by Zeus62
Language : Ukrainian
Default : Yes
Forced : Yes

Text
ID : 3
Format : UTF-8
Codec ID : S_TEXT/UTF8
Codec ID/Info : UTF-8 Plain Text
Title : Forced
Language : Ukrainian
Default : Yes
Forced : Yes
Скріншоти






Джерело:
Особиста оцінка: 8 - мені сподобалося


 Трекер:    Зареєстрований   

Завантажити / скачати фільм українською



відео для новачків



 Зареєстрований:   2015-05-06 08:12
 Розмір:   6.43 GB 
 Оцінка фільму:   9.6/10 (Голосів: 16)
   
Інші релізи
   Морський бій / Battleship (2012) 2xUkr/Eng | Sub Ukr/Eng Gelios  8 / 0   2.18 GB   2016-02-25 20:22 
   Морський бій / Battleship (2012) Ukr/Eng antik_2008  1 / 0   2.54 GB   2012-11-22 15:53 
   Морський бій / Battleship (2012) Skiff  12 / 0   2.12 GB   2012-11-22 15:52 
   Морський бій / Battleship (2012) 720p Ukr/Eng | Sub Ukr/Eng | Line Zeus62  5 / 0   4.2 GB   2012-09-14 12:02 
   Морський бій / Battleship (2012) 720p Ukr/Eng | Sub Ukr/Eng 11FrYkT  9 / 0   5.98 GB   2012-09-11 20:38 
   Морський бій /Лінкор / Battleship (2012) Ukr / Eng | sub Ukr / Eng patriot2305  2 / 0   1.63 GB   2012-08-17 17:37 
SebiVise 
Частий відвідувач


З нами з: 16.08.10
Востаннє: 03.12.16
Повідомлень: 48

2016-08-27 22:37  
Можете роздати?
Ваш часовий пояс: GMT + 2 Години

Нова тема   Відповісти