Завантажити та скачати торренти українською


Як украсти діамант / Love Punch (2013) 720p Ukr/Eng | Sub Eng

Нові коментарі

Нова тема   Відповісти
Автор Повідомлення
Anonymous 







2015-05-05 16:36  
Як украсти діамант / The Love Punch (2013) 720p Ukr/Eng | Sub Eng



Оригінальні обкладинки та постери






повнорозмірні зображення відкриються по кліку (з натиснутим CTRL чи кліком середньою кнопкою мишки - у іншій вкладці)


Жанр: комедія
Країна: Франція



Кінокомпанія: Process Media, Love Punch, Radar Films, SND
Режисер: Джоел Гопкінс / Joel Hopkins
Актори: Пірс Броснан / Pierce Brosnan, Емма Томпсон / Emma Thompson, Тімоті Сполл / Timothy Spall, Селія Імрі / Celia Imrie, Таппенс Мідлтон / Tuppence Middleton, Луїз Бурґуан / Louise Bourgoin, Маріза Беренсон / Marisa Berenson, Сабіна Кроссен / Sabine Crossen, Елінор Матсуура / Eleanor Matsuura, Патріс Колс / Patrice Cols та інші

Сюжет:
Розлучене подружжя, Річард і Кейт, виявляють, що їх пенсія пропала через обман інвестиційної компанії Річарда, і пенсійний фонд вже не здатний забезпечити їм старість. Дізнавшись, що недобросовісний французький фінансист тільки що купив алмаз за $ 10 мільйонів для своєї нареченої, Річард і Кейт неохоче погоджуються ненадовго відкласти свої розбіжності і задумали прийти без запрошення на весілля і викрасти діамант.


Рейтинг MPAA: PG-13 - дітям до 13 років перегляд не бажаний
Вікова категорія: 12+

Тривалість: 01:34:32
Якість: 720p
Відео:
кодек:
розмір кадру: 1280x534
бітрейт: 6589 кбіт/с [crf=15.7]

Аудіо # 1:
мова: українська
переклад: багатоголосий закадровий
кодек: 2.0 (стерео)
бітрейт: 192 кбіт/с

Аудіо # 2:
мова: англійська
переклад: оригінал
кодек: 5.1
бітрейт: 640 кбіт/с

Субтитри:
мова: англійська (повні, SDH)
тип: програмні (м'які)
формат: *.srt

Збережено оригінальні розділи, як на Blu-ray.
MediaInfo
Код:
General
Unique ID                   : 176977517755974708914980215572104832880 (0x8524A14DC59D7DD4A4737B7DEE256770)
Complete name               : The Love Punch (2013) [Ukr,Eng sub.Eng] 720p [Hurtom].mkv
Format                      : Matroska
Format version              : Version 4 / Version 2
File size                   : 5.00 GiB
Duration                    : 1h 34mn
Overall bit rate            : 7 572 Kbps
Movie name                  : Як украсти діамант / The Love Punch (2013) [Ukr,Eng sub.Eng] 720p [Hurtom]
Encoded date                : UTC 2015-05-05 17:30:51
Writing application         : mkvmerge v7.8.0 ('River Man') 64bit built on Mar 27 2015 16:31:37
Writing library             : libebml v1.3.1 + libmatroska v1.4.2
Attachements                : cover.jpg
DURATION                    : 01:34:04.870000000
NUMBER_OF_FRAMES            : 1509
NUMBER_OF_BYTES             : 56387
_STATISTICS_WRITING_APP     : mkvmerge v7.8.0 ('River Man') 64bit built on Mar 27 2015 16:31:37
_STATISTICS_WRITING_DATE_UT : 2015-05-05 17:30:51
_STATISTICS_TAGS            : BPS DURATION NUMBER_OF_FRAMES NUMBER_OF_BYTES

Video
ID                          : 1
Format                      : AVC
Format/Info                 : Advanced Video Codec
Format profile              : [email protected]
Format settings, CABAC      : Yes
Format settings, ReFrames   : 12 frames
Codec ID                    : V_MPEG4/ISO/AVC
Duration                    : 1h 34mn
Bit rate                    : 6 589 Kbps
Width                       : 1 280 pixels
Height                      : 534 pixels
Display aspect ratio        : 2.40:1
Frame rate mode             : Constant
Frame rate                  : 23.976 fps
Color space                 : YUV
Chroma subsampling          : 4:2:0
Bit depth                   : 8 bits
Scan type                   : Progressive
Bits/(Pixel*Frame)          : 0.402
Stream size                 : 4.35 GiB (87%)
Title                       : Як украсти діамант / The Love Punch / Как украсть бриллиант (2013) 720p [KinoRay]
Writing library             : core 142 r2453kMod ea0ca51
Encoding settings           : cabac=1 / ref=12 / deblock=1:-3:-3 / analyse=0x3:0x133 / me=umh / subme=10 / psy=1 / fade_compensate=0.00 / psy_rd=1.00:0.00 / mixed_ref=1 / me_range=24 / chroma_me=1 / trellis=2 / 8x8dct=1 / cqm=0 / deadzone=21,11 / fast_pskip=0 / chroma_qp_offset=-2 / threads=24 / lookahead_threads=4 / sliced_threads=0 / nr=0 / decimate=0 / interlaced=0 / bluray_compat=0 / constrained_intra=0 / fgo=0 / bframes=10 / b_pyramid=2 / b_adapt=2 / b_bias=0 / direct=3 / weightb=1 / open_gop=0 / weightp=2 / keyint=250 / keyint_min=23 / scenecut=40 / intra_refresh=0 / rc=crf / mbtree=0 / crf=15.7000 / qcomp=0.75 / qpmin=0 / qpmax=69 / qpstep=4 / ip_ratio=1.20 / pb_ratio=1.20 / aq=1:0.90
Language                    : English
Default                     : Yes
Forced                      : No
DURATION                    : 01:34:32.459000000
NUMBER_OF_FRAMES            : 136003
NUMBER_OF_BYTES             : 4776614208
_STATISTICS_WRITING_APP     : mkvmerge v7.8.0 ('River Man') 64bit built on Mar 27 2015 16:31:37
_STATISTICS_WRITING_DATE_UT : 2015-05-05 17:30:51
_STATISTICS_TAGS            : BPS DURATION NUMBER_OF_FRAMES NUMBER_OF_BYTES

Audio #1
ID                          : 2
Format                      : AC-3
Format/Info                 : Audio Coding 3
Mode extension              : CM (complete main)
Format settings, Endianness : Big
Codec ID                    : A_AC3
Duration                    : 1h 34mn
Bit rate mode               : Constant
Bit rate                    : 192 Kbps
Channel(s)                  : 2 channels
Channel positions           : Front: L R
Sampling rate               : 48.0 KHz
Bit depth                   : 16 bits
Compression mode            : Lossy
Stream size                 : 130 MiB (3%)
Title                       : MVO [Inter] 2.0 192 kbps [Hurtom-Gelios,POMEO,Sando7]
Language                    : Ukrainian
Default                     : Yes
Forced                      : No

Audio #2
ID                          : 3
Format                      : AC-3
Format/Info                 : Audio Coding 3
Mode extension              : CM (complete main)
Format settings, Endianness : Big
Codec ID                    : A_AC3
Duration                    : 1h 34mn
Bit rate mode               : Constant
Bit rate                    : 640 Kbps
Channel(s)                  : 6 channels
Channel positions           : Front: L C R, Side: L R, LFE
Sampling rate               : 48.0 KHz
Bit depth                   : 16 bits
Compression mode            : Lossy
Stream size                 : 433 MiB (8%)
Title                       : Original 5.1 640 kbps
Language                    : English
Default                     : No
Forced                      : No

Text #1
ID                          : 4
Format                      : UTF-8
Codec ID                    : S_TEXT/UTF8
Codec ID/Info               : UTF-8 Plain Text
Title                       : full
Language                    : English
Default                     : No
Forced                      : No

Text #2
ID                          : 5
Format                      : UTF-8
Codec ID                    : S_TEXT/UTF8
Codec ID/Info               : UTF-8 Plain Text
Title                       : SDH
Language                    : English
Default                     : No
Forced                      : No

Menu
00:00:00.000                : en:00:00:00.000
00:00:16.767                : en:00:00:16.767
00:00:17.017                : en:00:00:17.017
00:06:10.787                : en:00:06:10.787
00:11:54.464                : en:00:11:54.464
00:17:31.425                : en:00:17:31.425
00:22:34.103                : en:00:22:34.103
00:28:18.322                : en:00:28:18.322
00:33:56.284                : en:00:33:56.284
00:41:40.915                : en:00:41:40.915
00:46:44.927                : en:00:46:44.927
00:52:38.739                : en:00:52:38.739
00:57:11.803                : en:00:57:11.803
01:04:42.462                : en:01:04:42.462
01:10:25.263                : en:01:10:25.263
01:17:27.226                : en:01:17:27.226
01:23:19.036                : en:01:23:19.036
01:28:23.381                : en:01:28:23.381




Джерела та подяки: &
ріп відео - KinoRay; українська доріжка - Gelios - зведення, POMEO, Sando7 - запис з ТБ; українізований постер - Gelios (всі троє - Гуртом).


ЗАЛИШАЙТЕСЬ ЯКОМОГА ДОВШЕ НА РОЗДАЧІ!

СКАЧАВ САМ - ДАЙ СКАЧАТИ ІНШИМ


 Трекер:    Зареєстрований   

Завантажити / скачати фільм українською



відео для новачків



 Зареєстрований:   2015-05-05 19:56
 Розмір:   5 GB 
 Оцінка фільму:   2.9/10 (Голосів: 14)
   
Інші релізи
   Як украсти діамант / Love Punch (2013) Gelios  5 / 0   1.45 GB   2015-05-04 21:46 
Ваш часовий пояс: GMT + 2 Години

Нова тема   Відповісти