Завантажити та скачати торренти українською


Останній рубіж / Homefront (2013) 720p 2xUkr/Eng | Sub Eng

Нові коментарі

Нова тема   Відповісти
Автор Повідомлення
Anonymous 







2015-05-04 12:35  
Останній рубіж / Homefront (2013) 720p 2xUkr/Eng | Sub Eng



Оригінальні постери










повнорозмірні зображення відкриються по кліку (з натиснутим CTRL чи кліком середньою кнопкою мишки - у іншій вкладці)


Жанр: екшн, кримінальний, драма
Країна: США



Кінокомпанія: Open Road Films (II), Endgame Entertainment, Millennium Films, Homefront Productions, Mojo Films, Nu Image Films
Режисер: Ґері Фледер / Gary Fleder
Автор сценарію: Сильвестер Сталлоне / Sylvester Stallone
Актори: Джейсон Стетхем / Jason Statham, Джеймс Франко / James Franco, Ізабела Відовіч / Izabela Vidovic, Вайнона Райдер / Winona Ryder, Кейт Босворт / Kate Bosworth, Кленсі Браун / Clancy Brown, Рашель Лефевр / Rachelle Lefevre, Омар Бенсон Міллер / Omar Benson Miller, Маркус Гестер / Marcus Hester, Френк Ґрілло / Frank Grillo та інші

Сюжет:
Філ Брокер - колишній агент з відділу боротьби з наркотиками. Він переїжджає в невелике місто разом з родиною з надією забути минуле. Але він дізнається, що місто тільки з боку здається тихим і спокійним, насправді воно кишить насильством, наркотиками, а всім цим заправляє лиходій на прізвисько Алігатор.


Рейтинг MPAA: R - особам до 17 років обов'язкова присутність батьків або дорослого опікуна
Вікова категорія: 16+

Тривалість: 01:40:34
Якість: 720p
Відео:
кодек:
розмір кадру: 1280 х 532
бітрейт: 7297 кбіт/с [crf=16.5]

Аудіо # 1:
мова: українська
переклад: професійний дубльований
кодек: 5.1
бітрейт: 1152 кбіт/с
Інформація про дубляж
Ролі дублювали: Юрій Ребрик, Юлія Перенчук, Дмитро Завадський, Ліза Зіновенко, Ярослав Чорненький, Анатолій Зіновенко, Олена Яблучна, Олександр Єфімов, Андрій Середа, Андрій Федінчик, Андрій Альохін, Дмитро Лавров та інші
Фільм дубльовано студією ААА-sound у 2013 році на замовлення компанії Галеон Кіно.
Аудіо # 2:
мова: українська
переклад: багатоголосий закадровий
ролі озвучили: Олег Стальчук, Володимир Терещук, Юрій Гребельник і Олена Бліннікова
кодек: 2.0 (стерео)
бітрейт: 192 кбіт/с

Аудіо # 3:
мова: англійська
переклад: оригінал
кодек: 5.1
бітрейт: 1509 кбіт/с

Субтитри:
мова: англійська
тип: програмні (м'які)
формат: *.srt

Збережено оригінальні розділи, як на Blu-ray.
MediaInfo
Код:
General
Unique ID                   : 192123592734961840792730880901852801103 (0x9089A87477AA272DBE3F378BBB6DA84F)
Complete name               : Homefront (2013) [2xUkr,Eng sub.Eng] 720p [Hurtom & HDClub].mkv
Format                      : Matroska
Format version              : Version 4 / Version 2
File size                   : 7.28 GiB
Duration                    : 1h 40mn
Overall bit rate            : 10.4 Mbps
Movie name                  : Останній рубіж / Homefront (2013) [2xUkr,Eng sub.Eng] 720p [Hurtom & HDClub]
Encoded date                : UTC 2015-05-04 15:13:36
Writing application         : mkvmerge v7.8.0 ('River Man') 64bit built on Mar 27 2015 16:31:37
Writing library             : libebml v1.3.1 + libmatroska v1.4.2
Attachements                : cover.jpg
DURATION                    : 01:40:33.952000000
NUMBER_OF_FRAMES            : 188561
NUMBER_OF_BYTES             : 144814848
_STATISTICS_WRITING_APP     : mkvmerge v7.8.0 ('River Man') 64bit built on Mar 27 2015 16:31:37
_STATISTICS_WRITING_DATE_UT : 2015-05-04 15:13:36
_STATISTICS_TAGS            : BPS DURATION NUMBER_OF_FRAMES NUMBER_OF_BYTES

Video
ID                          : 1
Format                      : AVC
Format/Info                 : Advanced Video Codec
Format profile              : [email protected]
Format settings, CABAC      : Yes
Format settings, ReFrames   : 12 frames
Codec ID                    : V_MPEG4/ISO/AVC
Duration                    : 1h 40mn
Bit rate                    : 7 297 Kbps
Width                       : 1 280 pixels
Height                      : 532 pixels
Display aspect ratio        : 2.40:1
Frame rate mode             : Constant
Frame rate                  : 23.976 fps
Color space                 : YUV
Chroma subsampling          : 4:2:0
Bit depth                   : 8 bits
Scan type                   : Progressive
Bits/(Pixel*Frame)          : 0.447
Stream size                 : 5.13 GiB (70%)
Title                       : Останній рубіж / Homefront / Последний рубеж (2013) 720p [EbP]
Writing library             : core 142 r2389kMod 956c8d8
Encoding settings           : cabac=1 / ref=12 / deblock=1:-3:-3 / analyse=0x3:0x133 / me=umh / subme=10 / psy=1 / fade_compensate=0.00 / psy_rd=1.00:0.00 / mixed_ref=1 / me_range=32 / chroma_me=1 / trellis=2 / 8x8dct=1 / cqm=0 / deadzone=21,11 / fast_pskip=0 / chroma_qp_offset=-2 / threads=3 / lookahead_threads=1 / sliced_threads=0 / nr=0 / decimate=0 / interlaced=0 / bluray_compat=0 / constrained_intra=0 / fgo=0 / bframes=10 / b_pyramid=2 / b_adapt=2 / b_bias=0 / direct=3 / weightb=1 / open_gop=0 / weightp=2 / keyint=250 / keyint_min=23 / scenecut=40 / intra_refresh=0 / rc_lookahead=60 / rc=crf / mbtree=0 / crf=16.5000 / qcomp=0.60 / qpmin=0 / qpmax=69 / qpstep=4 / vbv_maxrate=62500 / vbv_bufsize=78125 / crf_max=0.0 / nal_hrd=none / filler=0 / ip_ratio=1.30 / pb_ratio=1.20 / aq=1:0.85
Language                    : English
Default                     : Yes
Forced                      : No
DURATION                    : 01:40:34.821000000
NUMBER_OF_FRAMES            : 144691
NUMBER_OF_BYTES             : 5657085921
_STATISTICS_WRITING_APP     : mkvmerge v7.8.0 ('River Man') 64bit built on Mar 27 2015 16:31:37
_STATISTICS_WRITING_DATE_UT : 2015-05-04 15:13:36
_STATISTICS_TAGS            : BPS DURATION NUMBER_OF_FRAMES NUMBER_OF_BYTES

Audio #1
ID                          : 2
Format                      :
Format/Info                 : Digital Theater Systems
Mode                        : 16
Format settings, Endianness : Big
Codec ID                    : A_DTS
Duration                    : 1h 40mn
Bit rate mode               : Constant
Bit rate                    : 1 152 Kbps
Channel(s)                  : 6 channels
Channel positions           : Front: L C R, Side: L R, LFE
Sampling rate               : 48.0 KHz
Bit depth                   : 24 bits
Compression mode            : Lossy
Stream size                 : 829 MiB (11%)
Title                       : Dub [ААА-sound] 5.1 1152 kbps
Language                    : Ukrainian
Default                     : Yes
Forced                      : No

Audio #2
ID                          : 3
Format                      : AC-3
Format/Info                 : Audio Coding 3
Mode extension              : CM (complete main)
Format settings, Endianness : Big
Codec ID                    : A_AC3
Duration                    : 1h 40mn
Bit rate mode               : Constant
Bit rate                    : 192 Kbps
Channel(s)                  : 2 channels
Channel positions           : Front: L R
Sampling rate               : 48.0 KHz
Bit depth                   : 16 bits
Compression mode            : Lossy
Stream size                 : 138 MiB (2%)
Title                       : MVO [ICTV] 2.0 192 kbps [Hurtom-Gelios,slavik_v_z]
Language                    : Ukrainian
Default                     : No
Forced                      : No

Audio #3
ID                          : 4
Format                      :
Format/Info                 : Digital Theater Systems
Mode                        : 16
Format settings, Endianness : Big
Codec ID                    : A_DTS
Duration                    : 1h 40mn
Bit rate mode               : Constant
Bit rate                    : 1 509 Kbps
Channel(s)                  : 6 channels
Channel positions           : Front: L C R, Side: L R, LFE
Sampling rate               : 48.0 KHz
Bit depth                   : 24 bits
Compression mode            : Lossy
Stream size                 : 1.06 GiB (15%)
Title                       : Original 5.1 1509 kbps
Language                    : English
Default                     : No
Forced                      : No

Text
ID                          : 5
Format                      : UTF-8
Codec ID                    : S_TEXT/UTF8
Codec ID/Info               : UTF-8 Plain Text
Language                    : English
Default                     : No
Forced                      : No

Menu
00:00:00.000                : en:Chapter 1
00:04:55.461                : en:Chapter 2
00:09:14.095                : en:Chapter 3
00:14:55.853                : en:Chapter 4
00:21:42.426                : en:Chapter 5
00:25:03.001                : en:Chapter 6
00:31:23.214                : en:Chapter 7
00:34:04.000                : en:Chapter 8
00:39:01.088                : en:Chapter 9
00:45:47.995                : en:Chapter 10
00:49:29.257                : en:Chapter 11
00:55:16.479                : en:Chapter 12
01:01:55.420                : en:Chapter 13
01:08:56.173                : en:Chapter 14
01:12:27.634                : en:Chapter 15
01:16:00.973                : en:Chapter 16
01:19:15.250                : en:Chapter 17
01:24:02.620                : en:Chapter 18
01:29:39.122                : en:Chapter 19
01:35:16.961                : en:Chapter 20
Оригінал <----------> Ріп








Джерела та подяки: &
ріп відео, оригінальні звук та субтитри - EbP (HDbits), Skazhutin (HDClub); українська доріжка (ICTV) - Gelios - зведення, slavik_v_z - запис з ТБ (всі - Гуртом).


ЗАЛИШАЙТЕСЬ ЯКОМОГА ДОВШЕ НА РОЗДАЧІ!

СКАЧАВ САМ - ДАЙ СКАЧАТИ ІНШИМ


 Трекер:    Зареєстрований   

Завантажити / скачати фільм українською



відео для новачків



 Зареєстрований:   2015-05-04 18:12
 Розмір:   7.28 GB 
 Оцінка фільму:   4.8/10 (Голосів: 18)
   
Інші релізи
   Останній рубіж / Homefront (2013) AVC 2xUkr/Eng | Sub Eng 11FrYkT  0 / 0   2.86 GB   2015-05-04 20:06 
   Останній рубіж / Homefront (2013) 1080p 2xUkr/Eng | Sub Eng ninenine  0 / 0   10.43 GB   2015-05-04 18:52 
   Останній рубіж / Homefront (2013) 2xUkr/Eng Gelios  11 / 0   2.18 GB   2015-05-04 12:04 
bot 
робот


З нами з: 30.09.07
Востаннє: 26.05.05
Повідомлень: 16052

2015-05-04 18:12  
Тему перенесено з Анонси релізів до форуму Фільми в HD


igor911

Відьмачечок 
Частий відвідувач


З нами з: 17.05.11
Востаннє: 11.12.16
Повідомлень: 47

2015-05-08 16:27  
То як народ, варто час витрачати на фільм?
Anonymous 







2015-05-08 16:35  
Відьмачечок, у сусідній роздачі є анотація та відгуки http://toloka.to/t65191
Ваш часовий пояс: GMT + 2 Години

Нова тема   Відповісти