Завантажити та скачати торренти українською


Злочинний закон / Criminal Law (1988) Ukr/Eng | Sub Eng

Нові коментарі

Нова тема   Відповісти
Автор Повідомлення
Anonymous 







2015-05-03 18:32  
Злочинний закон / Criminal Law (1988) Ukr/Eng | Sub Eng



Інші постери








повнорозмірні зображення відкриються по кліку (з натиснутим CTRL чи кліком середньою кнопкою мишки - у іншій вкладці)


Жанр: трилер, кримінальний
Країна: США



Кінокомпанія: Hemdale Film, Northwood Productions
Режисер: Мартін Кемпбелл / Martin Campbell
Актори: Ґері Олдмен (Gary Oldman), Кевін Бейкон / Kevin Bacon, Тесс Харпер / Tess Harper, Керен Янґ / Karen Young, Джо Дон Бейкер / Joe Don Baker та інші

Сюжет:
Молодому перспективному адвокату Бену Чейзу (Гарі Олдмен) вдається довести на суді, що його підзахисний (Кевін Бейкон) не винен у садистському вбивстві. Однак невдовзі відбувається дуже схоже вбивство, і Чейз розуміє, що його підзахисний далеко не ангел...
Друзі обвинуваченого тиснуть на Чейза, припускаючи, що варто йому взятися за справу, як підзахисний вийде з в'язниці. Адвокат погоджується, але тепер він розраховує власними силами вивести злочинця на чисту воду.


Рейтинг MPAA: R - особам до 17 років обов'язкова присутність батьків або дорослого опікуна
Вікова категорія: 16+

Тривалість: 01:53:49
Якість:
Відео:
кодек: build 73 codec
розмір кадру: 704 x 384
бітрейт: 2150 кбіт/с

Аудіо # 1:
мова: українська
переклад: двоголосий закадровий - студія "Старий Майстер"
ролі озвучили: Олег Лепенець і Людмила Ардельян
кодек: 2.0
бітрейт: 192 кбіт/с

Аудіо # 2:
мова: англійська
переклад: оригінал
кодек: 2.0
бітрейт: 192 кбіт/с

Субтитри: (завантажити)
мова: англійська (повні, SDH)
тип: програмні (м'які)
формат: *.srt
MediaInfo
Код:
General
Complete name               : Criminal Law (1988) [Ukr,Eng] [Hurtom & HQ-ViDEO].avi
Format                      : AVI
Format/Info                 : Audio Video Interleave
Format profile              : OpenDML
File size                   : 2.03 GiB
Duration                    : 1h 53mn
Overall bit rate            : 2 551 Kbps
Movie name                  : Злочинний закон / Criminal Law (1988)
Director                    : igor911, HRIME, Lan
Genre                       : Triller/Crime
Writing application         : VirtualDubModRus 1.5.10.2 (build 2540/release)
Original source form/Name   : Movie
Copyright                   : Hurtom & HQ-ViDEO
Comment                     : 03.05.2015

Video
ID                          : 0
Format                      : MPEG-4 Visual
Format profile              : Advanced [email protected]
Format settings, BVOP       : 1
Format settings, QPel       : No
Format settings, GMC        : No warppoints
Format settings, Matrix     : Custom
Codec ID                    :
Codec ID/Hint               :
Duration                    : 1h 53mn
Bit rate                    : 2 150 Kbps
Width                       : 704 pixels
Height                      : 384 pixels
Display aspect ratio        : 1.85:1
Frame rate                  : 23.976 fps
Color space                 : YUV
Chroma subsampling          : 4:2:0
Bit depth                   : 8 bits
Scan type                   : Progressive
Compression mode            : Lossy
Bits/(Pixel*Frame)          : 0.332
Stream size                 : 1.71 GiB (84%)
Writing library             : 73

Audio #1
ID                          : 1
Format                      : AC-3
Format/Info                 : Audio Coding 3
Mode extension              : CM (complete main)
Format settings, Endianness : Big
Codec ID                    : 2000
Duration                    : 1h 52mn
Bit rate mode               : Constant
Bit rate                    : 192 Kbps
Channel(s)                  : 2 channels
Channel positions           : Front: L R
Sampling rate               : 48.0 KHz
Bit depth                   : 16 bits
Compression mode            : Lossy
Stream size                 : 155 MiB (7%)
Alignment                   : Split accross interleaves
Interleave, duration        : 42 ms (1.01 video frame)
Interleave, preload duratio : 500 ms
Title                       : DVO Ukr

Audio #2
ID                          : 2
Format                      : AC-3
Format/Info                 : Audio Coding 3
Mode extension              : CM (complete main)
Format settings, Endianness : Big
Codec ID                    : 2000
Duration                    : 1h 53mn
Bit rate mode               : Constant
Bit rate                    : 192 Kbps
Channel(s)                  : 2 channels
Channel positions           : Front: L R
Sampling rate               : 48.0 KHz
Bit depth                   : 16 bits
Compression mode            : Lossy
Stream size                 : 156 MiB (8%)
Alignment                   : Split accross interleaves
Interleave, duration        : 42 ms (1.00 video frame)
Interleave, preload duratio : 500 ms
Title                       : Eng




Джерела та подяки: &
ріп відео, оригінальні звук та субтитри - HRIME (HQ-ViDEO); українська доріжка - Lan - зведення, gig_Panas - запис з ТБ; українізований постер - Lan; фільмографії акторів та інформація про озвучення - Віктор (всі - Гуртом).


ЗАЛИШАЙТЕСЬ ЯКОМОГА ДОВШЕ НА РОЗДАЧІ!

СКАЧАВ САМ - ДАЙ СКАЧАТИ ІНШИМ


Срібний реліз (на рейтинг впливає 50% завантаженого)
 Трекер:    Зареєстрований   

Завантажити / скачати фільм українською



відео для новачків



 Зареєстрований:   2015-05-03 18:32
 Розмір:   2.03 GB 
 Оцінка фільму:   2.9/10 (Голосів: 14)
   
Інші релізи
Ваш часовий пояс: GMT + 2 Години

Нова тема   Відповісти