Завантажити та скачати торренти українською


Я прийшов з миром (Темний Ангел) / Dark Angel (I Come in Peace) (1989) Ukr/Eng | Sub Eng

Нові коментарі

Нова тема   Відповісти
Автор Повідомлення
Anonymous 







2015-05-03 15:44  
Я прийшов з миром (Темний Ангел) / Dark Angel (I Come in Peace) (1989) Ukr/Eng | Sub Eng



Альтернативні постери










повнорозмірні зображення відкриються по кліку (з натиснутим CTRL чи кліком середньою кнопкою мишки - у іншій вкладці)


Жанр: бойовик, фантастика, трилер, драма, кримінальний, жахи
Країна: США



Кінокомпанія: Vision PDG, Epic Productions, Epic Productions, Trans World Entertainment (TWE), Vision International
Режисер: Крейг Р. Бакслі / Craig R. Baxley
Актори: Дольф Лундгрен / Dolph Lundgren, Брайан Бенбен / Brian Benben, Бетсі Брентлі / Betsy Brantley, Девід Ейкройд / David Ackroyd, Матіас Х'юз / Matthias Hues, Джей Білас / Jay Bilas, Джим Гейні / Jim Haynie та інші

Сюжет:
Під час операції по затриманню наркоторговців поліцейський Джек Кейн (Дольф Лундгрен) втрачає напарника і починає розслідування серії дивних смертей - жертви гинуть від неймовірно великої дози героїну, хоча ніколи не були наркоманами.

Разом з новим напарником, приставленим до нього пихатим фбрівцем, Джек приходять до дивовижного висновку: вбивця ніхто інший, як інопланетний злочинець, що полює за ідеальним наркотиком - ендорфіном, який викачує зі своїх жертв. Але чи зможе людина перемогти прибульця?
Цікаві факти про фільм

• Маттіасу Х'юзу, що зіграв "поганого" прибульця, довелося виконувати всі трюки самостійно, оскільки не знайшлося каскадерів такого ж великого зросту.
• В американський прокат картина вийшла під назвою "Я прийшов з миром", щоб не виникло плутанини зі старим фільмом з однойменною назвою.
• На ранніх етапах створення сценарію, фільм мав бути комедією.
• Спочатку планувалося, що Дольф Лундгрен зіграє роль "поганого" Прибульця.
• Маттіас Х'юз носив спеціальні платформи, які робили його вище, кожна важила 20 фунтів.
• Ця стрічка є однією з улюблених у Стівена Кінга.
• Пістолет прибульця - це модифікований Calico M950.
• Сценарій редагував Девід Кепп.
• Перша (робоча) назва - "Смертельний контракт".

Рейтинг MPAA: R - особам до 17 років обов'язкова присутність батьків або дорослого опікуна
Вікова категорія: 16+

Тривалість: 01:31:57
Якість:
Відео:
кодек: build 73
розмір кадру: 704 х 400
бітрейт: 1866 кбіт/с

Аудіо # 1:
мова: українська
переклад: двоголосий закадровий
кодек: 2.0
бітрейт: 192 кбіт/с

Аудіо # 2:
мова: англійська
переклад: оригінал
кодек: 5.1
бітрейт: 448 кбіт/с

Субтитри: (завантажити окремо)
мова: англійська
тип: програмні (м'які)
формат: *.srt
MediaInfo
Код:
General
Complete name               : Dark Angel (1989) [Ukr,Eng] [Hurtom].avi
Format                      : AVI
Format/Info                 : Audio Video Interleave
File size                   : 1.62 GiB
Duration                    : 1h 31mn
Overall bit rate            : 2 521 Kbps
Movie name                  : Я прийшов з миром / Dark Angel (1989)
Director                    : igor911, Dalemake, JACKUS, olgaya
Genre                       : Action/Crime/Horror
Writing application         : VirtualDubModRus 1.5.10.2 (build 2540/release)
Copyright                   : Hurtom & rutracker
Comment                     : 03.05.2015

Video
ID                          : 0
Format                      : MPEG-4 Visual
Format profile              : Advanced [email protected]
Format settings, BVOP       : 1
Format settings, QPel       : No
Format settings, GMC        : No warppoints
Format settings, Matrix     : Custom
Codec ID                    :
Codec ID/Hint               :
Duration                    : 1h 31mn
Bit rate                    : 1 866 Kbps
Width                       : 704 pixels
Height                      : 400 pixels
Display aspect ratio        : 16:9
Frame rate                  : 23.976 fps
Color space                 : YUV
Chroma subsampling          : 4:2:0
Bit depth                   : 8 bits
Scan type                   : Progressive
Compression mode            : Lossy
Bits/(Pixel*Frame)          : 0.276
Stream size                 : 1.20 GiB (74%)
Writing library             : 73

Audio #1
ID                          : 1
Format                      : AC-3
Format/Info                 : Audio Coding 3
Mode extension              : CM (complete main)
Format settings, Endianness : Big
Codec ID                    : 2000
Duration                    : 1h 31mn
Bit rate mode               : Constant
Bit rate                    : 192 Kbps
Channel(s)                  : 2 channels
Channel positions           : Front: L R
Sampling rate               : 48.0 KHz
Bit depth                   : 16 bits
Compression mode            : Lossy
Stream size                 : 126 MiB (8%)
Alignment                   : Split accross interleaves
Interleave, duration        : 42 ms (1.00 video frame)
Interleave, preload duratio : 500 ms
Title                       : Ukr

Audio #2
ID                          : 2
Format                      : AC-3
Format/Info                 : Audio Coding 3
Mode extension              : CM (complete main)
Format settings, Endianness : Big
Codec ID                    : 2000
Duration                    : 1h 31mn
Bit rate mode               : Constant
Bit rate                    : 448 Kbps
Channel(s)                  : 6 channels
Channel positions           : Front: L C R, Side: L R, LFE
Sampling rate               : 48.0 KHz
Bit depth                   : 16 bits
Compression mode            : Lossy
Stream size                 : 295 MiB (18%)
Alignment                   : Split accross interleaves
Interleave, duration        : 42 ms (1.00 video frame)
Interleave, preload duratio : 500 ms
Title                       : Eng




Джерела та подяки: &
ріп відео - dalemake (рутрекер); українська доріжка - JACKUS - зведення, olgaya - запис з ТБ; українізований постер - gig_Panas (всі - Гуртом).

Особиста оцінка: 8 - мені сподобалося






ЗАЛИШАЙТЕСЬ ЯКОМОГА ДОВШЕ НА РОЗДАЧІ!

СКАЧАВ САМ - ДАЙ СКАЧАТИ ІНШИМ


Срібний реліз (на рейтинг впливає 50% завантаженого)
 Трекер:    Зареєстрований   

Завантажити / скачати фільм українською



відео для новачків



 Зареєстрований:   2015-05-03 15:44
 Розмір:   1.62 GB 
 Оцінка фільму:   5.3/10 (Голосів: 20)
   
Anonymous 







2015-05-03 15:58  
Стрічка має кілька назв: офіційна міжнародна "Dark Angel" (Темний ангел, Чорний ангел, Ангел пітьми) та американська "I Come in Peace" ("Я прийшов з миром", саме так і озвучено тут).
Також є плутанина з роком виходу фільму: IMDB пише 1990, а в самому фільмі вказано 1989 рік.

robotron005 
Відео Гуртом - фільмокрай
Відео Гуртом - фільмокрай


З нами з: 29.01.09
Востаннє: 04.12.16
Повідомлень: 2984

2015-05-03 17:50  
igor911 написано:
IMDB пише 1990, а в самому фільмі вказано 1989 рік.


чом ніякий не вказано?

Шкода немає старого озвучення студії 1+1.

Anonymous 







2015-05-03 17:52  
виправив
medved666 
Свій


З нами з: 11.04.15
Востаннє: 04.12.16
Повідомлень: 50

2015-05-05 00:44  
Я теж сумую по багатьом фільмам з озв. 1+1 Happy
Andrew Kovinsky 
Новенький


З нами з: 22.02.13
Востаннє: 02.11.16
Повідомлень: 9

2015-10-28 14:10  
igor911 написано:
Шкода немає старого озвучення студії 1+1.

Ну от, щасливого різдва, трясця твоїй матері! Happy
Де знайти цю чудову версію?

Anonymous 







2015-10-28 15:14  
Andrew Kovinsky, якщо плюси/2+2 не транслювали цей фільм останні років 10, то її знищено.
Ваш часовий пояс: GMT + 2 Години

Нова тема   Відповісти