Завантажити та скачати торренти українською


Індіанець у шафі / The Indian in the Cupboard (1995) 720p 2xUkr/Eng | Sub Eng

Нові коментарі

Нова тема   Відповісти
Автор Повідомлення
Anonymous 







2015-05-03 10:37  
Індіанець у шафі / The Indian in the Cupboard (1995) 720p 2xUkr/Eng | Sub Eng



Альтернативні постери




повнорозмірні зображення відкриються по кліку (з натиснутим CTRL чи кліком середньою кнопкою мишки - у іншій вкладці)


Жанр: фентезі, пригодницький, сімейний
Країна: США



Кінокомпанія: Columbia Pictures Corporation, Kennedy/Marshall Company, The Paramount Pictures, Reliable Pictures Corporation, Scholastic Productions
Режисер: Френк Оз / Frank Oz
Актори: Гел Скардіно / Hal Scardino, Лайтфут / Litefoot, Ліндсей Круз / Lindsay Crouse, Річард Дженкінс / Richard Jenkins, Ріші Бхат / Rishi Bhat, Стів Куґен / Steve Coogan, Девід Кейт / David Keith, Сакіне Джеффрі / Sakina Jaffrey, Вінсент Картайзер / Vincent Kartheiser, Нестор Серрано / Nestor Serrano та інші

Сюжет:
На девятиріччя хлопчик Омрі отримує багато подарунків. Два з яких, на перший погляд, не мають особливої ​​цінності: стара шафа від брата і маленький пластиковий індіанець. Але саме ці дві речі принесуть йому багато несподіванок і сюрпризів ...


Рейтинг MPAA: PG - рекомендується присутність батьків
Вікова категорія: 6+

Тривалість: 01:36:09
Якість:
Відео:
кодек:
розмір кадру: 1280 х 720
бітрейт: 6645 кбіт/с

Аудіо # 1:
мова: українська
переклад: багатоголосий закадровий
кодек: 2.0
бітрейт: 192 кбіт/с

Аудіо # 2:
мова: українська
переклад: двоголосий закадровий
кодек: 2.0
бітрейт: 192 кбіт/с

Аудіо # 3:
мова: англійська
переклад: оригінал
кодек: 2.0
бітрейт: 192 кбіт/с
MediaInfo
Код:
General
Unique ID                   : 254703795522980413036098765564231176936 (0xBF9E2AAB31180BC29B438EE5BA3A52E8)
Complete name               : The Indian in the Cupboard (1995) [2xUkr,Eng] 720p [Hurtom].mkv
Format                      : Matroska
Format version              : Version 4 / Version 2
File size                   : 4.85 GiB
Duration                    : 1h 36mn
Overall bit rate            : 7 222 Kbps
Movie name                  : Індіанець у шафі / The Indian in the Cupboard (1995) [2xUkr,Eng] 720p [Hurtom]
Encoded date                : UTC 2015-05-03 07:34:53
Writing application         : mkvmerge v7.8.0 ('River Man') 64bit built on Mar 27 2015 16:31:37
Writing library             : libebml v1.3.1 + libmatroska v1.4.2
Attachements                : cover.jpg
DURATION                    : 01:36:08.928000000
NUMBER_OF_FRAMES            : 180279
NUMBER_OF_BYTES             : 138454272
_STATISTICS_WRITING_APP     : mkvmerge v7.8.0 ('River Man') 64bit built on Mar 27 2015 16:31:37
_STATISTICS_WRITING_DATE_UT : 2015-05-03 07:34:53
_STATISTICS_TAGS            : BPS DURATION NUMBER_OF_FRAMES NUMBER_OF_BYTES

Video
ID                          : 1
Format                      : AVC
Format/Info                 : Advanced Video Codec
Format profile              : [email protected]
Format settings, CABAC      : Yes
Format settings, ReFrames   : 8 frames
Codec ID                    : V_MPEG4/ISO/AVC
Duration                    : 1h 36mn
Bit rate                    : 6 645 Kbps
Width                       : 1 280 pixels
Height                      : 720 pixels
Display aspect ratio        : 16:9
Frame rate mode             : Constant
Frame rate                  : 23.976 fps
Color space                 : YUV
Chroma subsampling          : 4:2:0
Bit depth                   : 8 bits
Scan type                   : Progressive
Bits/(Pixel*Frame)          : 0.301
Stream size                 : 4.37 GiB (90%)
Title                       : Індіанець у шафі / The Indian In The Cupboard / Индеец в шкафу (1995) 720p [AmPirCo]
Writing library             : core 142 r2431 ac76440
Encoding settings           : cabac=1 / ref=8 / deblock=1:-3:-3 / analyse=0x3:0x113 / me=umh / subme=8 / psy=1 / psy_rd=1.10:0.00 / mixed_ref=1 / me_range=32 / chroma_me=1 / trellis=2 / 8x8dct=1 / cqm=0 / deadzone=21,11 / fast_pskip=0 / chroma_qp_offset=-2 / threads=6 / lookahead_threads=1 / sliced_threads=0 / nr=0 / decimate=1 / interlaced=0 / bluray_compat=0 / constrained_intra=0 / bframes=6 / b_pyramid=2 / b_adapt=2 / b_bias=0 / direct=3 / weightb=1 / open_gop=0 / weightp=2 / keyint=240 / keyint_min=23 / scenecut=40 / intra_refresh=0 / rc_lookahead=50 / rc=2pass / mbtree=0 / bitrate=6645 / ratetol=1.0 / qcomp=0.60 / qpmin=10 / qpmax=51 / qpstep=4 / cplxblur=20.0 / qblur=0.5 / vbv_maxrate=62500 / vbv_bufsize=78125 / nal_hrd=none / filler=0 / ip_ratio=1.40 / pb_ratio=1.30 / aq=1:1.00
Language                    : English
Default                     : Yes
Forced                      : No
DURATION                    : 01:36:08.930000000
NUMBER_OF_FRAMES            : 138316
NUMBER_OF_BYTES             : 4790375866
_STATISTICS_WRITING_APP     : mkvmerge v7.8.0 ('River Man') 64bit built on Mar 27 2015 16:31:37
_STATISTICS_WRITING_DATE_UT : 2015-05-03 07:34:53
_STATISTICS_TAGS            : BPS DURATION NUMBER_OF_FRAMES NUMBER_OF_BYTES

Audio #1
ID                          : 2
Format                      : AC-3
Format/Info                 : Audio Coding 3
Mode extension              : CM (complete main)
Format settings, Endianness : Big
Codec ID                    : A_AC3
Duration                    : 1h 36mn
Bit rate mode               : Constant
Bit rate                    : 192 Kbps
Channel(s)                  : 2 channels
Channel positions           : Front: L R
Sampling rate               : 48.0 KHz
Bit depth                   : 16 bits
Compression mode            : Lossy
Stream size                 : 132 MiB (3%)
Title                       : MVO [K1] 2.0 192 kbps [Hurtom-taraskill1]
Language                    : Ukrainian
Default                     : Yes
Forced                      : No

Audio #2
ID                          : 3
Format                      : AC-3
Format/Info                 : Audio Coding 3
Mode extension              : CM (complete main)
Format settings, Endianness : Big
Codec ID                    : A_AC3
Duration                    : 1h 36mn
Bit rate mode               : Constant
Bit rate                    : 192 Kbps
Channel(s)                  : 2 channels
Channel positions           : Front: L R
Sampling rate               : 48.0 KHz
Bit depth                   : 16 bits
Compression mode            : Lossy
Stream size                 : 132 MiB (3%)
Title                       : DVO 2.0 192 kbps [Hurtom-taraskill1]
Language                    : Ukrainian
Default                     : No
Forced                      : No

Audio #3
ID                          : 4
Format                      : AC-3
Format/Info                 : Audio Coding 3
Mode extension              : CM (complete main)
Format settings, Endianness : Big
Codec ID                    : A_AC3
Duration                    : 1h 36mn
Bit rate mode               : Constant
Bit rate                    : 192 Kbps
Channel(s)                  : 2 channels
Channel positions           : Front: L R
Sampling rate               : 48.0 KHz
Bit depth                   : 16 bits
Compression mode            : Lossy
Stream size                 : 132 MiB (3%)
Title                       : Original 2.0 192 kbps
Language                    : English
Default                     : No
Forced                      : No




Джерела та подяки: &
ріп відео, оригінальний звук - AmPirCo, IVH (рутрекер); українські доріжки - taraskill1 - зведення, POMEO - запис з ТБ (1); українізований постер - BigMak (всі - Гуртом).


ЗАЛИШАЙТЕСЬ ЯКОМОГА ДОВШЕ НА РОЗДАЧІ!

СКАЧАВ САМ - ДАЙ СКАЧАТИ ІНШИМ


Срібний реліз (на рейтинг впливає 50% завантаженого)
 Трекер:    Зареєстрований   

Завантажити / скачати фільм українською



відео для новачків



 Зареєстрований:   2015-05-03 10:37
 Розмір:   4.85 GB 
 Оцінка фільму:   3.1/10 (Голосів: 13)
   
Інші релізи
Ваш часовий пояс: GMT + 2 Години

Нова тема   Відповісти