Завантажити та скачати торренти українською


Та, що породжує вогонь / Firestarter (1984) 720p Ukr/Eng | Sub Eng

Нові коментарі

Нова тема   Відповісти
Автор Повідомлення
demotyvator 
Частий відвідувач


З нами з: 24.02.12
Востаннє: 07.12.16
Повідомлень: 35

2015-05-01 17:25  
Та, що породжує вогонь / Firestarter (1984) 720p Ukr/Eng | Sub Eng

Та, що породжує вогонь / Firestarter (1984) 720p Ukr/Eng | Sub Eng


Жанр: фантастика, триллер, жахи
Країна: США



Кінокомпанія: Metro Goldwyn Mayer / Dino de Laurentiis
Режисер: Марк Л. Лестер
Актори: Девід Кіт, Дрю Беррімор, Фредді Джоунс, Хезер Локлір, Мартін Шин, Джордж С. Скотт, Арт Карні, Луїз Флетчер, Моузес Ганн, Антоніо Фаргас

Сюжет:
Чарлі Макгі здається звичайною восьмирічною дівчинкою, але лише до тих пір, поки не розсердиться або образиться. Те, що в інших дітей викликає сльози і страх, пробуджує в Чарлі смертоносну здатність одним лише поглядом запалювати все навколо. Такий дар не може не зацікавити спецслужби, готові на все, щоб роздобути Чарлі в своє розпорядження.


Тривалість: 01:54:12
Якість:
Відео:
кодек:
розмір кадру: 1280 х 544
бітрейт: 5 148 кб/с

Аудіо # 1:
мова: українська
переклад: багатоголосий закадровий | Студія Стармайстер
кодек: 2.0
бітрейт: 192 кб/с

Аудіо # 2:
мова: англійська
переклад: оригінал
кодек: 2.0
бітрейт: 448 кб/с

Субтитри:
мова: англійська
тип: програмні (м'які)
формат: *.UTF-8
MediaInfo
General
Complete name : H:\Гуртом\1 Фільми\Та, що породжує вогонь\720p\Firestarter (1984) 720p [Ukr,Eng Sub Eng][Hurtom].mkv
Format : Matroska
File size : 4.71 GiB
Duration : 1h 54mn
Overall bit rate : 5 905 Kbps
Encoded date : UTC 2015-05-01 12:35:54
Writing application : mkvmerge v5.6.0 ('Kenya Kane') built on May 27 2012 16:44:04
Writing library : libebml v1.2.3 + libmatroska v1.3.0

Video
ID : 1
Format : AVC
Format/Info : Advanced Video Codec
Format profile : [email protected]
Format settings, CABAC : Yes
Format settings, ReFrames : 9 frames
Muxing mode : Container [email protected]
Codec ID : V_MPEG4/ISO/AVC
Duration : 1h 54mn
Bit rate : 5 148 Kbps
Nominal bit rate : 5 265 Kbps
Width : 1 280 pixels
Height : 544 pixels
Display aspect ratio : 2.35:1
Frame rate : 23.976 fps
Resolution : 8 bits
Colorimetry : 4:2:0
Scan type : Progressive
Bits/(Pixel*Frame) : 0.308
Stream size : 4.10 GiB (87%)
Title : Firestarter
Writing library : core 130 r2273 b3065e6
Encoding settings : cabac=1 / ref=10 / deblock=1:-1:-1 / analyse=0x3:0x113 / me=tesa / subme=11 / psy=1 / psy_rd=1.00:0.15 / mixed_ref=0 / me_range=16 / chroma_me=1 / trellis=2 / 8x8dct=1 / cqm=0 / deadzone=21,11 / fast_pskip=1 / chroma_qp_offset=-3 / threads=6 / lookahead_threads=1 / sliced_threads=0 / nr=0 / decimate=1 / interlaced=0 / bluray_compat=0 / constrained_intra=0 / bframes=9 / b_pyramid=1 / b_adapt=2 / b_bias=0 / direct=3 / weightb=1 / open_gop=0 / weightp=1 / keyint=240 / keyint_min=24 / scenecut=40 / intra_refresh=0 / rc_lookahead=10 / rc=2pass / mbtree=1 / bitrate=5265 / ratetol=1.0 / qcomp=0.60 / qpmin=0 / qpmax=69 / qpstep=4 / cplxblur=20.0 / qblur=0.5 / vbv_maxrate=62500 / vbv_bufsize=78125 / nal_hrd=none / ip_ratio=1.40 / aq=1:1.00
Color primaries : BT.709-5, BT.1361, IEC 61966-2-4, SMPTE RP177
Transfer characteristics : BT.709-5, BT.1361
Matrix coefficients : BT.709-5, BT.1361, IEC 61966-2-4 709, SMPTE RP177

Audio #1
ID : 2
Format : AC-3
Format/Info : Audio Coding 3
Codec ID : A_AC3
Duration : 1h 54mn
Bit rate mode : Constant
Bit rate : 192 Kbps
Channel(s) : 2 channels
Channel positions : L R
Sampling rate : 48.0 KHz
Stream size : 157 MiB (3%)
Language : Ukrainian

Audio #2
ID : 3
Format : AC-3
Format/Info : Audio Coding 3
Codec ID : A_AC3
Duration : 1h 54mn
Bit rate mode : Constant
Bit rate : 448 Kbps
Channel(s) : 2 channels
Channel positions : L R
Sampling rate : 48.0 KHz
Stream size : 366 MiB (8%)

Text
ID : 4
Format : UTF-8
Codec ID : S_TEXT/UTF8
Codec ID/Info : UTF-8 Plain Text
Title : Full

Menu
00:00:00.000 : en:00:00:00.000
00:08:08.571 : en:00:08:08.571
00:16:25.610 : en:00:16:25.610
00:22:14.041 : en:00:22:14.041
00:34:44.374 : en:00:34:44.374
00:45:36.192 : en:00:45:36.192
00:54:58.045 : en:00:54:58.045
01:05:13.910 : en:01:05:13.910
01:12:45.653 : en:01:12:45.653
01:21:54.243 : en:01:21:54.243
01:29:14.641 : en:01:29:14.641
01:33:41.282 : en:01:33:41.282
01:36:23.444 : en:01:36:23.444
01:41:37.883 : en:01:41:37.883
01:49:53.462 : en:01:49:53.462
01:51:03.156 : en:01:51:03.156
Скріншоти


Реліз зроблено на прохання трудящих.

Подяка:

панам RB26DETT та Romario_O за українську доріжку
пану thefir за українізований постер


Джерело: &
Особиста оцінка: 8 - мені сподобалося


Срібний реліз (на рейтинг впливає 50% завантаженого)
 Трекер:    Зареєстрований   

Завантажити / скачати фільм українською



відео для новачків



 Зареєстрований:   2015-05-01 17:25
 Розмір:   4.71 GB 
 Оцінка фільму:   10/10 (Голосів: 2)
   
Інші релізи
Ваш часовий пояс: GMT + 2 Години

Нова тема   Відповісти