Завантажити та скачати торренти українською


Дика орхідея / Wild Orchid (1989) 2xUkr/Eng | Sub Ukr

Нові коментарі

Нова тема   Відповісти
Автор Повідомлення
Anonymous 







2015-05-01 10:58  
Дика орхідея / Wild Orchid (1989) 2xUkr/Eng | Sub Ukr



Жанр: драма, мелодрама, еротичний
Країна: США



Кінокомпанія: Vision PDG
Режисер: Залман Кінг / Zalman King
Актори: Міккі Рурк / Mickey Rourke, Жаклін Біссет / Jacqueline Bisset, Керрі Отіс / Carré Otis, Ассумпта Серна / Assumpta Serna, Брюс Грінвуд / Bruce Greenwood, Олег Відов / Oleg Vidov та інші

Сюжет:
Влаштувавшись на роботу в юридичну фірму, Емілія - молода красива дівчина, направляється в Бразилію допомогти закінчити справи з нерухомістю. В Ріо-де-Жанейро вона зустрічає Віллера - загадкового і дуже сексуального мільйонера, який, використовуючи свою чарівність, намагається спокусити невинну красуню. Під божевільні ритми і фарби карнавалу, він розпалює в дівчині вулкан невідомих раніше почуттів і еротичних фантазій, так і не наважуючись на активні дії. Для нього це звична гра в кохання, але Емілія не хоче і не може грати, вона відверта і це спонукає Віллера відкрити їй своє серце...


Рейтинг MPAA: R - особам до 17 років обов'язкова присутність батьків або дорослого опікуна
Вікова категорія: 16+

Тривалість: 01:45:15
Якість:
Відео:
кодек: build 66
розмір кадру: 704x384
бітрейт: 1776 кбіт/с
примітка: Blu-ray версія фільму сильно відрізняється від попередніх версій, багато сцен перемонтовано, обрізано, деякі додано.

Аудіо # 1:
мова: українська
переклад: багатоголосий закадровий - Так Треба Продакшн на замовлення
ролі озвучили: Людмила Чиншева, Анатолій Пашнін, Сергій Ладєсов? і ще один жіночий голос
кодек: 2.0
бітрейт: 192 кбіт/с

Аудіо # 2:
мова: українська
переклад: двоголосий закадровий
ролі озвучили: Олесь Гімбаржевський і Наталя Задніпровська
кодек: 2.0
бітрейт: 192 кбіт/с

примітка: через значні відмінності Blu-ray версії фільму від попередніх епізод з 1:30:46 по 1:31:15 залишився без українського озвучення.

Аудіо # 3:
мова: англійська
переклад: оригінал
кодек: 2.0
бітрейт: 192 кбіт/с

Субтитри: (завантажити)
мова: українська
тип: програмні (м'які)
формат: *.srt
MediaInfo
Код:
General
Complete name               : Wild Orchid (1989) [2xUkr,Eng] [Hurtom & HQClub].avi
Format                      : AVI
Format/Info                 : Audio Video Interleave
File size                   : 1.74 GiB
Duration                    : 1h 45mn
Overall bit rate            : 2 371 Kbps
Movie name                  : Дика орхідея / Wild Orchid / Дикая орхидея (1989)
Director                    : igor911 & kingsize87
Writing application         : VirtualDubModRus 1.5.10.2 (build 2540/release)
Copyright                   : Hurtom & HQCLUB
Comment                     : 01.05.2015

Video
ID                          : 0
Format                      : MPEG-4 Visual
Format profile              : Advanced [email protected]
Format settings, BVOP       : 1
Format settings, QPel       : No
Format settings, GMC        : No warppoints
Format settings, Matrix     : Custom
Codec ID                    :
Codec ID/Hint               :
Duration                    : 1h 45mn
Bit rate                    : 1 776 Kbps
Width                       : 704 pixels
Height                      : 384 pixels
Display aspect ratio        : 1.85:1
Frame rate                  : 23.976 fps
Color space                 : YUV
Chroma subsampling          : 4:2:0
Bit depth                   : 8 bits
Scan type                   : Progressive
Compression mode            : Lossy
Bits/(Pixel*Frame)          : 0.274
Stream size                 : 1.31 GiB (75%)
Writing library             : 66

Audio #1
ID                          : 1
Format                      : AC-3
Format/Info                 : Audio Coding 3
Mode extension              : CM (complete main)
Format settings, Endianness : Big
Codec ID                    : 2000
Duration                    : 1h 45mn
Bit rate mode               : Constant
Bit rate                    : 192 Kbps
Channel(s)                  : 2 channels
Channel positions           : Front: L R
Sampling rate               : 48.0 KHz
Bit depth                   : 16 bits
Compression mode            : Lossy
Stream size                 : 145 MiB (8%)
Alignment                   : Split accross interleaves
Interleave, duration        : 42 ms (1.00 video frame)
Interleave, preload duratio : 500 ms
Title                       : Inter

Audio #2
ID                          : 2
Format                      : AC-3
Format/Info                 : Audio Coding 3
Mode extension              : CM (complete main)
Format settings, Endianness : Big
Codec ID                    : 2000
Duration                    : 1h 45mn
Bit rate mode               : Constant
Bit rate                    : 192 Kbps
Channel(s)                  : 2 channels
Channel positions           : Front: L R
Sampling rate               : 48.0 KHz
Bit depth                   : 16 bits
Compression mode            : Lossy
Stream size                 : 145 MiB (8%)
Alignment                   : Split accross interleaves
Interleave, duration        : 42 ms (1.00 video frame)
Interleave, preload duratio : 500 ms
Title                       : ICTV

Audio #3
ID                          : 3
Format                      : AC-3
Format/Info                 : Audio Coding 3
Mode extension              : CM (complete main)
Format settings, Endianness : Big
Codec ID                    : 2000
Duration                    : 1h 45mn
Bit rate mode               : Constant
Bit rate                    : 192 Kbps
Channel(s)                  : 2 channels
Channel positions           : Front: L R
Sampling rate               : 48.0 KHz
Bit depth                   : 16 bits
Compression mode            : Lossy
Stream size                 : 145 MiB (8%)
Alignment                   : Split accross interleaves
Interleave, duration        : 42 ms (1.00 video frame)
Interleave, preload duratio : 500 ms
Title                       : Original




Джерела та подяки: & &
ріп відео - kingsize87 (HQClub), українські доріжки - HDСlub - зведення під BD версію, _oles - зведення під DVD версію, karvai0, dvorsky, urij546724 - запис з ТБ; українські субтитри - RuFіlms (DVD), igor911 - редагування під BD версію, [color=Green]; фільмографії акторів та інформація про озвучення - Віктор (всі - Гуртом).


ЗАЛИШАЙТЕСЬ ЯКОМОГА ДОВШЕ НА РОЗДАЧІ!

СКАЧАВ САМ - ДАЙ СКАЧАТИ ІНШИМ


Срібний реліз (на рейтинг впливає 50% завантаженого)
 Трекер:    Зареєстрований   

Завантажити / скачати фільм українською



відео для новачків



 Зареєстрований:   2015-05-01 20:52
 Розмір:   1.74 GB 
 Оцінка фільму:   4.8/10 (Голосів: 19)
   
Інші релізи
   Дика орхідея / Wild Orchid (1989) 720p 2xUkr/Eng | Sub Ukr igor911  3 / 0   8.59 GB   2015-05-01 21:40 
boroznaya 
VIP


З нами з: 02.11.12
Востаннє: 07.12.16
Повідомлень: 1875

2015-05-01 20:13  
Молодий Міккі Рурк! Вражуюче, як люди з плином років змінюються! Тут його дійсно можна побачити молодим секс-символом Голлівуду! Фільм так собі, але заради Рурка ще разок можна глянути! Спасибі!
Anonymous 







2015-05-01 20:57  
Оригінальних чи будь-яких інших субтитрів на blu-ray версію фільму не було, тому доданий епізод з 1:30:46 по 1:31:15 також залишився без укр. субтитрів (я на слух не зміг розібрати всіх слів).
omm 
Відео Гуртом - фільмокрай
Відео Гуртом - фільмокрай


З нами з: 12.06.12
Востаннє: 07.12.16
Повідомлень: 2066

2015-05-02 09:30  
Цікаво чи сучасні фанатки 50 відтінків сірого знають про існування цього і подібних фільмів. Чи може вони недостатньо гламурні для них
boroznaya 
VIP


З нами з: 02.11.12
Востаннє: 07.12.16
Повідомлень: 1875

2015-09-21 10:32  
Особисто мені 50 відтінків сірого не сподобався, і даний фільм також на разок.
Ваш часовий пояс: GMT + 2 Години

Нова тема   Відповісти