Завантажити та скачати торренти українською


Аферисти Дік та Джейн розважаються / Fun with Dick and Jane [Open Matte] (2005) 720p Ukr/Eng | Sub Eng

Нові коментарі

Нова тема   Відповісти
Автор Повідомлення
Anonymous 







2015-04-28 19:55  
Аферисти Дік та Джейн розважаються / Fun with Dick and Jane [Open Matte] (2005) 720p Ukr/Eng | Sub Eng



Альтернативні та оригінальні постери






повнорозмірні скріншоти відкриваються по кліку (з натиснутим CTRL чи кліком середньою кнопкою мишки - у іншій вкладці)


Жанр: комедія, кримінальний
Країна: США



Кінокомпанія: Columbia Pictures Corporation, Imagine Entertainment, JC 23 Entertainment
Режисер: Дін Парізо / Dean Parisot
Актори: Джим Керрі / Jim Carrey, Теа Леоні / Téa Leoni, Алек Болдвін / Alec Baldwin, Річард Дженкінс / Richard Jenkins, Енджі Гармон / Angie Harmon, Джон Майкл Гіґґінс / John Michael Higgins, Річард Берджі / Richard Burgi, Карлос Джекотт / Carlos Jacott, Аарон Майкл Дрозін / Aaron Michael Drozin, Ґлорія Ґараюа / Gloria Garayua та інші

Сюжет:
Дік Харпер (Джим Керрі) давно мріяв про підвищення на роботі. І як тільки його мрія здійснилась, доля робить крутий розворот - Дік з дружиною (Теа Леоні) залишаються без роботи, їх родинний бюджет летить у прірву банкрутства, а перспектива виселення з будинку перетворюється у реальність.

Доведена до відчаю, парочка починає промишляти дрібними пограбуваннями, і їм це подобається все більше і більше.


Рейтинг MPAA: PG-13 - дітям до 13 років перегляд не бажаний
Вікова категорія: 12+

Тривалість: 01:30:18
Якість: 720p [Open Matte]
Відео:
кодек:
розмір кадру: 1280 х 720
бітрейт: 3821 кбіт/с

Аудіо # 1: запис з
мова: українська
переклад: багатоголосий закадровий - Новий канал
ролі озвучили: Джим Керрі — Володимир Терещук, Алек Болдвін — Олег Стальчук, Інна Капінос? та Олена Бліннікова
кодек: 2.0
бітрейт: 192 кбіт/с

Аудіо # 2:
мова: англійська
переклад: оригінал
кодек: 5.1
бітрейт: 384 кбіт/с

Субтитри:
мова: англійська
тип: програмні (м'які)
формат: *.srt

Збережено оригінальні розділи, як на Blu-ray.
MediaInfo
Код:
General
Unique ID                   : 220179883133752811417740506294916737626 (0xA5A51A5EB9BFB27D8B867D6F6D37EA5A)
Complete name               : Fun with Dick and Jane [Open Matte] (2005) [Ukr,Eng sub.Eng] 720p [Hurtom & HDClub].mkv
Format                      : Matroska
Format version              : Version 4 / Version 2
File size                   : 2.83 GiB
Duration                    : 1h 30mn
Overall bit rate            : 4 486 Kbps
Movie name                  : Аферисти Дік та Джейн розважаються / Fun with Dick and Jane [Open Matte] (2005) [Ukr,Eng sub.Eng] 720p [Hurtom & HDClub]
Encoded date                : UTC 2015-04-28 06:32:01
Writing application         : mkvmerge v7.8.0 ('River Man') 64bit built on Mar 27 2015 16:31:37
Writing library             : libebml v1.3.1 + libmatroska v1.4.2
Attachements                : cover.jpg
DURATION                    : 01:23:12.271000000
NUMBER_OF_FRAMES            : 1169
NUMBER_OF_BYTES             : 45003
_STATISTICS_WRITING_APP     : mkvmerge v7.8.0 ('River Man') 64bit built on Mar 27 2015 16:31:37
_STATISTICS_WRITING_DATE_UT : 2015-04-28 06:32:01
_STATISTICS_TAGS            : BPS DURATION NUMBER_OF_FRAMES NUMBER_OF_BYTES

Video
ID                          : 1
Format                      : AVC
Format/Info                 : Advanced Video Codec
Format profile              : [email protected]
Format settings, CABAC      : No
Format settings, ReFrames   : 2 frames
Codec ID                    : V_MPEG4/ISO/AVC
Duration                    : 1h 30mn
Bit rate                    : 3 821 Kbps
Width                       : 1 280 pixels
Height                      : 720 pixels
Display aspect ratio        : 16:9
Frame rate mode             : Constant
Frame rate                  : 23.976 fps
Color space                 : YUV
Chroma subsampling          : 4:2:0
Bit depth                   : 8 bits
Scan type                   : Progressive
Bits/(Pixel*Frame)          : 0.173
Stream size                 : 2.41 GiB (85%)
Title                       : Аферисти Дік та Джейн розважаються / Fun with Dick and Jane / Аферисты Дик и Джейн (2005) 720p (iTunes Rus) [HDClub-spartanec163]
Language                    : English
Default                     : Yes
Forced                      : No
Color range                 : Limited
Color primaries             : BT.709
Transfer characteristics    : BT.709
Matrix coefficients         : BT.709

Audio #1
ID                          : 2
Format                      : AC-3
Format/Info                 : Audio Coding 3
Mode extension              : CM (complete main)
Format settings, Endianness : Big
Codec ID                    : A_AC3
Duration                    : 1h 30mn
Bit rate mode               : Constant
Bit rate                    : 192 Kbps
Channel(s)                  : 2 channels
Channel positions           : Front: L R
Sampling rate               : 48.0 KHz
Bit depth                   : 16 bits
Compression mode            : Lossy
Stream size                 : 124 MiB (4%)
Title                       : MVO [Novyj,1+1] 2.0 192 Kbps [Hurtom-Delight`,ratbol]
Language                    : Ukrainian
Default                     : Yes
Forced                      : No

Audio #2
ID                          : 3
Format                      : AC-3
Format/Info                 : Audio Coding 3
Mode extension              : CM (complete main)
Format settings, Endianness : Big
Codec ID                    : A_AC3
Duration                    : 1h 30mn
Bit rate mode               : Constant
Bit rate                    : 384 Kbps
Channel(s)                  : 6 channels
Channel positions           : Front: L C R, Side: L R, LFE
Sampling rate               : 48.0 KHz
Bit depth                   : 16 bits
Compression mode            : Lossy
Stream size                 : 248 MiB (9%)
Title                       : Original 5.1 384Kbps
Language                    : English
Default                     : No
Forced                      : No

Text
ID                          : 4
Format                      : UTF-8
Codec ID                    : S_TEXT/UTF8
Codec ID/Info               : UTF-8 Plain Text
Language                    : English
Default                     : No
Forced                      : No

Menu
00:00:00.000                : en:1
00:07:52.000                : en:2
00:14:11.000                : en:3
00:21:28.000                : en:4
00:27:53.000                : en:5
00:33:07.000                : en:6
00:43:40.000                : en:7
00:50:05.000                : en:8
00:57:40.000                : en:9
00:59:56.000                : en:10
01:04:27.000                : en:11
01:08:24.000                : en:12
01:13:41.000                : en:13
01:16:57.000                : en:14
01:20:29.000                : en:15
01:23:45.000                : en:16
720p (цей реліз)<----------> 720p







Джерела та подяки: &
відео, оригінальні звук та субтитри - spartanec163 (HDClub); українська доріжка - Delight` - зведення, ratbol - запис з ТБ (14.01.2013); українізовані постери - Gelios, Skiff; фільмографії акторів та інформація про озвучення - Віктор (всі - Гуртом).


ЗАЛИШАЙТЕСЬ ЯКОМОГА ДОВШЕ НА РОЗДАЧІ!

СКАЧАВ САМ - ДАЙ СКАЧАТИ ІНШИМ


 Трекер:    Зареєстрований   

Завантажити / скачати фільм українською



відео для новачків



 Зареєстрований:   2015-04-28 19:55
 Розмір:   2.83 GB 
 Оцінка фільму:   5.6/10 (Голосів: 21)
   
Інші релізи
Anonymous 







2015-04-28 20:16  
По ТЕТ була ця сама озвучка.
Estranded 
VIP


З нами з: 09.02.14
Востаннє: 05.12.16
Повідомлень: 835

2015-04-29 09:29  
Дякую!
Anonymous 







2015-04-29 10:09  
Estranded, для подяк є кнопка.
Ваш часовий пояс: GMT + 2 Години

Нова тема   Відповісти