Завантажити та скачати торренти українською


Сьомий син / Seventh Son (2014) 720p-mini

Нові коментарі

Нова тема   Відповісти
Автор Повідомлення
Drool 
VIP


З нами з: 17.04.10
Востаннє: 05.12.16
Повідомлень: 1262

2015-04-24 15:58  
Сьомий син / Seventh Son (2014) 720p-mini

Жанр: екшн, пригодницький, фентезі
Країна: США, Великобританія, Канада, Китай



Кінокомпанія: China Film Co., Legendary Pictures, Moving Picture Company (MPC)
Режисер: Сергій Бодров
Актори: Бен Барнс, Джефф Бріджес, Джуліанна Мур, Алісія Вікандер, Кіт Гарінґтон, Джімон Хонсу, Олівія Вільямс та інші

Сюжет:
За стародавньою легендою лише сьомий син сьомого сина може стати відьмаком і боронити край від потойбічного зла. Могутній ворог уже гуртує сили пітьми і юнак повинен пройти всі кола тренувань, щоб стати найвитривалішим, найсміливішим воїном і чарівником.


Тривалість: 01:41:59
Якість: 720p-mini
Відео:
кодек:
розмір кадру: 1280 x 534
бітрейт: 2603 кб/с

Аудіо:
мова: українська
переклад: професійний дубльований
кодек: 2.0
бітрейт: 192 кб/с

Субтитри:
мова: українська
тип: програмні (м'які) форсовані
формат: *.srt
MediaInfo
General
Unique ID : 11124887207532873201366860371944681497 (0x85E93497CFE6231ABAE38A111123019)
Complete name : /mnt/disk_d/Video/Seventh.Son.2014.Ukr.Dub-LINE..720p-mini.UAGet.mkv
Format : Matroska
Format version : Version 2
File size : 1.99 GiB
Duration : 1h 41mn
Overall bit rate : 2 799 Kbps
Writing application : HandBrake rev0
Writing library : libmkv 0.6.5
TITLE : Сьомий син / Seventh Son (2014) 720p-mini -=UAGet=-
ARTIST : Бен Барнс, Джефф Бріджес, Джуліанна Мур, Алісія Вікандер, Кіт Гарінґтон та інші
DIRECTOR : Сергій Бодров
DATE_RELEASED : 2014
GENRE : екшн, пригодницький, фентезі
SYNOPSIS : За стародавньою легендою лише сьомий син сьомого сина може стати відьмаком і боронити край від потойбічного зла. Могутній ворог уже гуртує сили пітьми і юнак повинен пройти всі кола тренувань, щоб стати найвитривалішим, найсміливішим воїном і чарівником.

Video
ID : 1
Format : AVC
Format/Info : Advanced Video Codec
Format profile : [email protected]
Format settings, CABAC : Yes
Format settings, ReFrames : 11 frames
Codec ID : V_MPEG4/ISO/AVC
Duration : 1h 41mn
Bit rate : 2 603 Kbps
Width : 1 280 pixels
Height : 534 pixels
Display aspect ratio : 2.40:1
Frame rate mode : Constant
Frame rate : 23.976 fps
Color space : YUV
Chroma subsampling : 4:2:0
Bit depth : 8 bits
Scan type : Progressive
Bits/(Pixel*Frame) : 0.159
Stream size : 1.82 GiB (91%)
Writing library : core 142 r2389 956c8d8
Encoding settings : cabac=1 / ref=12 / deblock=1:-3:-3 / analyse=0x3:0x133 / me=umh / subme=11 / psy=1 / psy_rd=1,10:0,15 / mixed_ref=1 / me_range=64 / chroma_me=1 / trellis=2 / 8x8dct=1 / cqm=0 / deadzone=21,11 / fast_pskip=0 / chroma_qp_offset=-3 / threads=6 / lookahead_threads=1 / sliced_threads=0 / nr=0 / decimate=1 / interlaced=0 / bluray_compat=0 / constrained_intra=0 / bframes=12 / b_pyramid=1 / b_adapt=2 / b_bias=0 / direct=3 / weightb=1 / open_gop=0 / weightp=2 / keyint=240 / keyint_min=24 / scenecut=40 / intra_refresh=0 / rc=2pass / mbtree=0 / bitrate=2603 / ratetol=1,0 / qcomp=1,00 / qpmin=0 / qpmax=69 / qpstep=4 / cplxblur=20,0 / qblur=0,5 / ip_ratio=1,40 / pb_ratio=1,30 / aq=2:0,60
Language : English
Default : Yes
Forced : No
Color primaries : BT.709
Transfer characteristics : BT.709
Matrix coefficients : BT.709

Audio
ID : 2
Format : AC-3
Format/Info : Audio Coding 3
Mode extension : CM (complete main)
Format settings, Endianness : Big
Codec ID : A_AC3
Duration : 1h 41mn
Bit rate mode : Constant
Bit rate : 192 Kbps
Channel(s) : 2 channels
Channel positions : Front: L R
Sampling rate : 48.0 KHz
Bit depth : 16 bits
Compression mode : Lossy
Stream size : 140 MiB (7%)
Language : Ukrainian
Default : Yes
Forced : No

Text
ID : 3
Format : UTF-8
Codec ID : S_TEXT/UTF8
Codec ID/Info : UTF-8 Plain Text
Language : Ukrainian
Default : Yes
Forced : No
Скріншоти






Реліз від:
Особиста оцінка: 8 - мені сподобалося


 Трекер:    Зареєстрований   

Завантажити / скачати фільм українською



відео для новачків



 Зареєстрований:   2015-04-27 07:16
 Розмір:   1.99 GB 
 Оцінка фільму:   8.4/10 (Голосів: 18)
   
Інші релізи
   Сьомий син / Seventh Son (2014) 1080p 3D [Half OverUnder] Ukr/Eng | Sub Ukr/Eng GEORGKys  4 / 0   8.5 GB   2015-06-14 19:56 
   Сьомий син / Seventh Son (2014) AVC Ukr | Sub Ukr/Eng patriot2305  3 / 0   1.68 GB   2015-04-25 07:41 
   Сьомий син / Seventh Son (2014) 1080p Ukr/Eng | Sub Ukr/Eng 11FrYkT  0 / 0   8.38 GB   2015-04-23 05:48 
   Сьомий син / Seventh Son (2014) 720p Ukr/Eng | Sub Ukr/Eng 11FrYkT  3 / 0   4.05 GB   2015-04-22 21:19 
   Сьомий син / Seventh Son (2014) patriot2305  11 / 0   1.45 GB   2015-04-22 21:01 
bot 
робот


З нами з: 30.09.07
Востаннє: 26.05.05
Повідомлень: 15989

2015-04-24 15:58  
Тему перенесено з Фільми в HD до форуму Анонси релізів


Drool

boroznaya 
VIP


З нами з: 02.11.12
Востаннє: 05.12.16
Повідомлень: 1872

2015-04-24 16:08  
Авішка від когось буде?
lenina4040 
Поважний учасник


З нами з: 03.11.12
Востаннє: 04.12.16
Повідомлень: 156

2015-04-24 16:56  
Вже є авішка Happy
http://toloka.to/t64804

boroznaya 
VIP


З нами з: 02.11.12
Востаннє: 05.12.16
Повідомлень: 1872

2015-04-24 17:20  
Супер! Щиро вдячна Вам!
Drool 
VIP


З нами з: 17.04.10
Востаннє: 05.12.16
Повідомлень: 1262

2015-04-24 21:29  
boroznaya написано:
Авішка від когось буде?

А можна поцікавитись - для яких пристроїв наразі ще актуальні avi-шки?

XXXVIRUS 
Частий відвідувач


З нами з: 15.06.10
Востаннє: 04.12.16
Повідомлень: 33

2015-04-25 09:18  
Drool написано:
А можна поцікавитись - для яких пристроїв наразі ще актуальні avi-шки?

Хоч сам зазвичай дивлюсь 1080р ріпи або ремукси на телевізорі, та все ж avi-шки для мене більш актуальні, ніж ці ваші псевдо 720р

patriot2305 
Почесний гуртомівець


З нами з: 23.04.11
Востаннє: 05.12.16
Повідомлень: 4145

2015-04-25 10:01  
Drool написано:
Сьомий син / Seventh Son (2014) 720p-mini | LINE

Прибери з назви зайве... Це не мік...

Drool 
VIP


З нами з: 17.04.10
Востаннє: 05.12.16
Повідомлень: 1262

2015-04-25 15:55  
XXXVIRUS написано:
Хоч сам зазвичай дивлюсь 1080р ріпи або ремукси на телевізорі, та все ж avi-шки для мене більш актуальні, ніж ці ваші псевдо 720р

Ти хоч зрозумів, що сказав? Бо я не розпарсив Happy

Додано через 6 хвилин 41 секунду:

patriot2305 написано:
Прибери з назви зайве... Це не мік...

Прибрав, але не згоден. Line - це навіть не iTunes, так що в жодному разі не ліцензія.

boroznaya 
VIP


З нами з: 02.11.12
Востаннє: 05.12.16
Повідомлень: 1872

2015-04-25 20:50  
Пане Drool! Для мене авішки актуальні, так як у мене дома кінескопний телевізор, а фільми переглядаю через залізний дівідюк.
patriot2305 
Почесний гуртомівець


З нами з: 23.04.11
Востаннє: 05.12.16
Повідомлень: 4145

2015-04-26 09:09  
Drool написано:
Line - це навіть не iTunes, так що в жодному разі не ліцензія

Записи з каналів це теж не ліцензії...

Drool 
VIP


З нами з: 17.04.10
Востаннє: 05.12.16
Повідомлень: 1262

2015-04-26 09:26  
patriot2305 написано:
Записи з каналів це теж не ліцензії...

В записах з каналів пишеться або , і всі розуміють, а тут , а звук "лівий", з нецифрового носія.

patriot2305 
Почесний гуртомівець


З нами з: 23.04.11
Востаннє: 05.12.16
Повідомлень: 4145

2015-04-26 09:40  
Drool написано:
В записах з каналів пишеться або

хах, розсмішив...

Drool 
VIP


З нами з: 17.04.10
Востаннє: 05.12.16
Повідомлень: 1262

2015-04-26 21:09  
patriot2305 написано:
хах, розсмішив...

Смішно, чи ні, але не помічати ріпи з ліцензійних носіїв, але з неліцензійним самописним звуком вважаю не правильним. На всіх трекерах, які поважають користувачів, звук "iTunes" чи тим паче "Line" є обов'язковими для вказання в назві.

bot 
робот


З нами з: 30.09.07
Востаннє: 26.05.05
Повідомлень: 15989

2015-04-27 07:16  
Тему перенесено з Анонси релізів до форуму Фільми в HD


Drool

Ваш часовий пояс: GMT + 2 Години

Нова тема   Відповісти