Завантажити та скачати торренти українською


Riffmaster - Beatiful Day (2008) [FLAC] | Rock hooligans

Нові коментарі

Нова тема   Відповісти
Останній раз роздавалося kolpavel (2016-11-14)
Автор Повідомлення
kolpavel 
VIP


З нами з: 04.05.14
Востаннє: 11.12.16
Повідомлень: 1062

2015-04-24 00:41  
Riffmaster - Beatiful Day (2008) [FLAC] | Rock hooligans

Riffmaster - Beatiful Day (2008) [FLAC] | Rock hooligans


Стиль: Rock hooligans
Країна, місто: Україна, Київ
Видавець: MOON records
Виконавці:
Андрій Антоненко
Віктор (Лук'ян) Лук'янов
Олексій (Льолік) Курбаков
Антон Панфілов

Пісні:
    01. Riffmaster Tony
    02. Beautiful Day
    03. Лей, тоска…
    04. Не рви мое сердце
    05. Freak Boutique
    06. Місяць
    07. Сенс
    08. Бегу!
    09. Мой мир
    10. Всегда с тобой
    11. Может…

    Бонус-трек:
    12. Травень

    Вiдео:
    1. Beautiful Day
    2. Riffmaster Tony


Тривалість: 00:48:12
Мова: (1,2,3,4,5,8,10,11) - росiйська, (6,7,12) - українська
Аудіо-кодек: FLAC
Бітрейт: 874-1116 кб/с
Джерело: Інтернет
Звiт ЕАС:
Exact Audio Copy V1.0 beta 3 from 29. August 2011

Отчёт EAC об извлечении, выполненном 23. декабря 2012, 1:45

Riffmaster / Beautiful Day

Дисковод: HL-DT-STDVDRAM GH24NS90 Adapter: 2 ID: 1

Режим чтения : Достоверность
Использование точного потока : Да
Отключение кэша аудио : Да
Использование указателей C2 : Нет

Коррекция смещения при чтении : 6
Способность читать области Lead-in и Lead-out : Нет
Заполнение пропущенных сэмплов тишиной : Да
Удаление блоков с тишиной в начале и конце : Нет
При вычислениях CRC использовались нулевые сэмплы : Да
Интерфейс : Встроенный Win32-интерфейс для Win NT/2000
Обработка зазоров : Добавлено к предыдущему треку

Выходной формат : Пользовательский кодировщик
Выбранный битрейт : 768 kBit/s
Качество : Высокий
Добавление ID3-тега : Нет
Утилита сжатия : C:\Program Files\Exact Audio Copy\FLAC\FLAC.EXE
Дополнительные параметры : -V -8 -T "Genre=%genre%" -T "Artist=%artist%" -T "Title=%title%" -T "Album=%albumtitle%" -T "Date=%year%" -T "Tracknumber=%tracknr%" -T "Comment=%comment%" %source%

TOC извлечённого CD

Трек | Старт | Длительность | Начальный сектор | Конечный сектор
---------------------------------------------------------------------
1 | 0:00.00 | 4:11.00 | 0 | 18824
2 | 4:11.00 | 3:52.07 | 18825 | 36231
3 | 8:03.07 | 4:10.66 | 36232 | 55047
4 | 12:13.73 | 4:01.65 | 55048 | 73187
5 | 16:15.63 | 3:33.03 | 73188 | 89165
6 | 19:48.66 | 4:56.51 | 89166 | 111416
7 | 24:45.42 | 4:07.70 | 111417 | 130011
8 | 28:53.37 | 3:34.00 | 130012 | 146061
9 | 32:27.37 | 5:17.73 | 146062 | 169909
10 | 37:45.35 | 4:05.11 | 169910 | 188295
11 | 41:50.46 | 3:05.33 | 188296 | 202203
12 | 44:56.04 | 3:19.49 | 202204 | 217177
13 | 50:47.53 | 10:35.70 | 228578 | 276272

Трек 1

Имя файла F:\РАЗДАЧИ\DATA\Riffmaster - Beautiful Day 2008\01 - Riffmaster Tony.wav

Длина предзазора 0:00:02.00

Пиковый уровень 100.0 %
Скорость извлечения 0.9 X
Качество трека 99.9 %
CRC теста F7E4875D
CRC копии F7E4875D
Копирование... OK

Трек 2

Имя файла F:\РАЗДАЧИ\DATA\Riffmaster - Beautiful Day 2008\02 - Beautiful Day.wav

Пиковый уровень 100.0 %
Скорость извлечения 1.0 X
Качество трека 99.9 %
CRC теста 29758A25
CRC копии 29758A25
Копирование... OK

Трек 3

Имя файла F:\РАЗДАЧИ\DATA\Riffmaster - Beautiful Day 2008\03 - Лей, Тоска....wav

Пиковый уровень 100.0 %
Скорость извлечения 1.2 X
Качество трека 100.0 %
CRC теста E448B762
CRC копии E448B762
Копирование... OK

Трек 4

Имя файла F:\РАЗДАЧИ\DATA\Riffmaster - Beautiful Day 2008\04 - Не Рви Моё Сердце.wav

Пиковый уровень 100.0 %
Скорость извлечения 1.3 X
Качество трека 100.0 %
CRC теста 4D649AAE
CRC копии 4D649AAE
Копирование... OK

Трек 5

Имя файла F:\РАЗДАЧИ\DATA\Riffmaster - Beautiful Day 2008\05 - Freak Boutique.wav

Пиковый уровень 100.0 %
Скорость извлечения 1.4 X
Качество трека 100.0 %
CRC теста 966D489B
CRC копии 966D489B
Копирование... OK

Трек 6

Имя файла F:\РАЗДАЧИ\DATA\Riffmaster - Beautiful Day 2008\06 - Місяць.wav

Пиковый уровень 100.0 %
Скорость извлечения 1.5 X
Качество трека 100.0 %
CRC теста 65E0D7CF
CRC копии 65E0D7CF
Копирование... OK

Трек 7

Имя файла F:\РАЗДАЧИ\DATA\Riffmaster - Beautiful Day 2008\07 - Сенс.wav

Пиковый уровень 97.9 %
Скорость извлечения 1.6 X
Качество трека 100.0 %
CRC теста 61C8212D
CRC копии 61C8212D
Копирование... OK

Трек 8

Имя файла F:\РАЗДАЧИ\DATA\Riffmaster - Beautiful Day 2008\08 - Бегу!.wav

Пиковый уровень 100.0 %
Скорость извлечения 1.6 X
Качество трека 100.0 %
CRC теста 6516600F
CRC копии 6516600F
Копирование... OK

Трек 9

Имя файла F:\РАЗДАЧИ\DATA\Riffmaster - Beautiful Day 2008\09 - Мой Мир.wav

Пиковый уровень 100.0 %
Скорость извлечения 1.8 X
Качество трека 100.0 %
CRC теста B353D5D6
CRC копии B353D5D6
Копирование... OK

Трек 10

Имя файла F:\РАЗДАЧИ\DATA\Riffmaster - Beautiful Day 2008\10 - Всегда с Тобой.wav

Пиковый уровень 100.0 %
Скорость извлечения 1.8 X
Качество трека 100.0 %
CRC теста AA38BA83
CRC копии AA38BA83
Копирование... OK

Трек 11

Имя файла F:\РАЗДАЧИ\DATA\Riffmaster - Beautiful Day 2008\11 - Может....wav

Пиковый уровень 100.0 %
Скорость извлечения 1.8 X
Качество трека 100.0 %
CRC теста 31B28416
CRC копии 31B28416
Копирование... OK

Трек 12

Имя файла F:\РАЗДАЧИ\DATA\Riffmaster - Beautiful Day 2008\12 - Травень.wav

Пиковый уровень 97.7 %
Скорость извлечения 1.9 X
Качество трека 100.0 %
CRC теста 1E774234
CRC копии 1E774234
Копирование... OK

Ошибок не произошло

Конец отчёта

==== Контрольная сумма отчёта DDA71F2334F5F72F54FC6345C501FFA189BA0D40405E23537D17493EAF38E8A7 ====
Звiт .CUE:
REM GENRE Rock
REM DATE 2008
REM DISCID CD0E630D
REM COMMENT "ExactAudioCopy v1.0b3"
PERFORMER "Riffmaster"
TITLE "Beautiful Day"
FILE "01 - Riffmaster Tony.wav" WAVE
TRACK 01 AUDIO
TITLE "Riffmaster Tony"
PERFORMER "Riffmaster"
INDEX 01 00:00:00
FILE "02 - Beautiful Day.wav" WAVE
TRACK 02 AUDIO
TITLE "Beautiful Day"
PERFORMER "Riffmaster"
INDEX 01 00:00:00
FILE "03 - Лей, Тоска....wav" WAVE
TRACK 03 AUDIO
TITLE "Лей, Тоска..."
PERFORMER "Riffmaster"
INDEX 01 00:00:00
FILE "04 - Не Рви Моё Сердце.wav" WAVE
TRACK 04 AUDIO
TITLE "Не Рви Моё Сердце"
PERFORMER "Riffmaster"
INDEX 01 00:00:00
FILE "05 - Freak Boutique.wav" WAVE
TRACK 05 AUDIO
TITLE "Freak Boutique"
PERFORMER "Riffmaster"
INDEX 01 00:00:00
FILE "06 - Місяць.wav" WAVE
TRACK 06 AUDIO
TITLE "Місяць"
PERFORMER "Riffmaster"
INDEX 01 00:00:00
FILE "07 - Сенс.wav" WAVE
TRACK 07 AUDIO
TITLE "Сенс"
PERFORMER "Riffmaster"
INDEX 01 00:00:00
FILE "08 - Бегу!.wav" WAVE
TRACK 08 AUDIO
TITLE "Бегу!"
PERFORMER "Riffmaster"
INDEX 01 00:00:00
FILE "09 - Мой Мир.wav" WAVE
TRACK 09 AUDIO
TITLE "Мой Мир"
PERFORMER "Riffmaster"
INDEX 01 00:00:00
FILE "10 - Всегда с Тобой.wav" WAVE
TRACK 10 AUDIO
TITLE "Всегда с Тобой"
PERFORMER "Riffmaster"
INDEX 01 00:00:00
FILE "11 - Может....wav" WAVE
TRACK 11 AUDIO
TITLE "Может..."
PERFORMER "Riffmaster"
INDEX 01 00:00:00
FILE "12 - Травень.wav" WAVE
TRACK 12 AUDIO
TITLE "Травень"
PERFORMER "Riffmaster"
INDEX 01 00:00:00
TRACK 13 MODEx/2xxx
TITLE "Track13"
PERFORMER "Riffmaster"
INDEX 00 03:19:49
Riffmaster - Beautiful Day - iPod.m4v:
Format: MPEG-4
Codec ID: M4V
File size: 48.8 Mb
Video: MPEG4 Video (H264) 640x480 25fps 1521kbps
Audio: 44100Hz stereo 125kbps
Тривалість: 00:04:04
Riffmaster - Beautiful Day
Riffmaster - Riffmaster Tony iPod.m4v
Format: MPEG-4
Codec ID: M4V
File size: 48.8 Mb
Video: MPEG4 Video (H264) 640x480 25fps 1521kbps
Audio: 44100Hz stereo 125kbps
Тривалість: 00:04:04
Riffmaster - Riffmaster Tony


Срібний реліз (на рейтинг впливає 50% завантаженого)
 Трекер:    Зареєстрований   

Завантажити / скачати українську музику



відео для новачків



 Зареєстрований:   2015-04-24 00:41
 Розмір:   459 MB 
 Оцінка музики:   5.5/10 (Голосів: 6)
   
kolpavel 
VIP


З нами з: 04.05.14
Востаннє: 11.12.16
Повідомлень: 1062

2015-04-24 02:29  
Riffmaster - Котлета по-киевски (2015) [MP3] | Rock - http://toloka.to/t65237#725368
Форкуш 
VIP


З нами з: 03.02.10
Востаннє: 11.12.16
Повідомлень: 1548

2015-04-24 07:02  
а цей мп3 буде?
kolpavel 
VIP


З нами з: 04.05.14
Востаннє: 11.12.16
Повідомлень: 1062

2015-04-24 18:03  
В МP3 не попадалось.
ssTAss 
Модератор музики


З нами з: 05.07.08
Востаннє: 11.12.16
Повідомлень: 10958

2015-04-26 13:20  
kolpavel написано:

Вiдео:
1. Beautiful Day
2. Riffmaster Tony

відео треба оформити відповідно до правил
можете взяти приклад звідси http://toloka.to/t36161
kolpavel написано:
Beautiful Day - iPod.m4v

так було на диску?

kolpavel 
VIP


З нами з: 04.05.14
Востаннє: 11.12.16
Повідомлень: 1062

2015-04-26 16:28  
Не зможу. Як що, то видалiть релiз.
ssTAss 
Модератор музики


З нами з: 05.07.08
Востаннє: 11.12.16
Повідомлень: 10958

2015-04-26 16:48  
kolpavel написано:
Не зможу.

???
не вмієте оформляти? ніби вже вся інфа є до одного кліпу
тільки скріншоти треба додати
і
kolpavel написано:
Видавець: Tasty Sound

це не видавець
має бути MOON records

kolpavel 
VIP


З нами з: 04.05.14
Востаннє: 11.12.16
Повідомлень: 1062

2015-04-26 20:24  
Якщо тiльки так? Я не можу сам скрiншот вставиты в спойлер. Тiльки посилання на нього. А про " iPod.m4v" то це так було на диску (взяв на вiру). Цей варіант був на продаж в Озон.ру i зараз висиь на росiйському нет ресурсi.
ssTAss 
Модератор музики


З нами з: 05.07.08
Востаннє: 11.12.16
Повідомлень: 10958

2015-04-26 21:17  
kolpavel написано:
Продолжительность:

тривалість
і радікал заборонений на Толоці
прошу залити скріншоти сюди http://img.hurtom.com/ а в реліз вставити код

kolpavel 
VIP


З нами з: 04.05.14
Востаннє: 11.12.16
Повідомлень: 1062

2015-04-26 22:39  
"тривалість і радікал" - видалiть релiз i дiлу кiнець. Бо я багато чого не рзумiю в цiй справi.
hattori_hanzo 
Новенький


З нами з: 02.01.11
Востаннє: 10.12.16
Повідомлень: 12

2015-05-08 21:24  
У Вас помилка в трек-лісті. 10 пісня називається "Всегда с тобой"
kolpavel 
VIP


З нами з: 04.05.14
Востаннє: 11.12.16
Повідомлень: 1062

2015-05-09 15:46  
hattori_hanzo, шеф уже виправив.
ssTAss 
Модератор музики


З нами з: 05.07.08
Востаннє: 11.12.16
Повідомлень: 10958

2015-05-09 18:41  
kolpavel
була інша назва в переліку
то я виправив після того, як hattori_hanzo вказав на помилку

kolpavel 
VIP


З нами з: 04.05.14
Востаннє: 11.12.16
Повідомлень: 1062

2015-05-09 19:55  
Дякую, ssTAss. Дякую, hattori_hanzo.
Ваш часовий пояс: GMT + 2 Години

Нова тема   Відповісти