Завантажити та скачати торренти українською


Місія Сереніті / Serenity (2005) Remux Ukr/Eng | Sub Eng

Нові коментарі

Нова тема   Відповісти
Автор Повідомлення
demotyvator 
Частий відвідувач


З нами з: 24.02.12
Востаннє: 28.11.16
Повідомлень: 35

2015-04-23 14:29  
Місія Сереніті / Serenity (2005) Remux Ukr/Eng | Sub Eng

Місія Сереніті / Serenity (2005) Remux Ukr/Eng | Sub Eng


Жанр: фантастика, пригодницький
Країна: США



Кінокомпанія: Universal Pictures
Режисер: Джос Відон / Joss Whedon
Актори: Нейтан Філіон, Джина Торрес, Алан Тьюдік, Морена Баккарін, Адам Болдвін, Джевел Стейт, Шон Мехер, Саммер Глоу, Рон Гласс, Чиветел Еджіофор, Девід Крумхольц, Майкл Хічкок, Сара Полстон, Ян Фельдман, Рафаель Фельдман, Nectar Rose, Тамара Тейлор , Гленн Ховертон, Хантер Енслі Врін, Логан О`брайєн

Сюжет:
Космічний «морський вовк» і ветеран Громадянської Галактичної війни Малькольм «Мел» Рейнольдс - тепер усього лише капітан транспортного корабля. Коли вони взяли на борт пасажирів - молодого лікаря і його дивну сестру з телепатичними здібностями, ні він, ні його товариші не припускали, в яку історію втягнуться. Рятуючись відразу від кількох могутніх ворогів - і від військових сил тоталітарного Всесвітнього Альянсу, і від жахливих канібалів женців, команда корабля навіть не здогадувалася, яка загроза ховається на борту «Сереніті».


Тривалість: 01:59:02
Якість: Remux
Відео:
кодек: VC-1
розмір кадру: 1920 х 1080
бітрейт: ~ 20527 кб/с

Аудіо # 1:
мова: українська
переклад: багатоголосий закадровий
кодек: 5.1
бітрейт: 384 кб/с

Аудіо # 2:
мова: англійська
переклад: оригінал
кодек: -HD MA 5.1
бітрейт: ~4309 кб/с

Аудіо # 3, 4:
мова: англійська
переклад: оригінал | Коментарі
кодек: 2.0
бітрейт: 192 кб/с

Субтитри # 1:
мова: англійська
тип: пререндерні
формат: *.pgs

Субтитри # 2 - 4:
мова: англійська | Коментарі
тип: пререндерні
формат: *.pgs
MediaInfo
General
Complete name : H:\Serenity (2005) Remux [Ukr,Eng Sub Eng] [Hurtom]\STREAM\00001.m2ts
Format : Matroska
File size : 21.4 GiB
Duration : 1h 59mn
Overall bit rate : 25.7 Mbps
Encoded date : UTC 2015-04-22 22:52:07
Writing application : mkvmerge v5.6.0 ('Kenya Kane') built on May 27 2012 16:44:04
Writing library : libebml v1.2.3 + libmatroska v1.3.0

Video
ID : 1
Format : VC-1
Format profile : [email protected]
Codec ID : WVC1
Codec ID/Hint : Microsoft
Duration : 1h 58mn
Width : 1 920 pixels
Height : 1 080 pixels
Display aspect ratio : 16:9
Frame rate : 23.976 fps
Resolution : 8 bits
Colorimetry : 4:2:0
Scan type : Progressive

Audio #1
ID : 2
Format : AC-3
Format/Info : Audio Coding 3
Codec ID : A_AC3
Duration : 1h 59mn
Bit rate mode : Constant
Bit rate : 384 Kbps
Channel(s) : 6 channels
Channel positions : Front: L C R, Surround: L R, LFE
Sampling rate : 48.0 KHz
Video delay : -42ms
Stream size : 327 MiB (1%)
Title : Українська
Language : Ukrainian

Audio #2
ID : 3
Format :
Format/Info : Digital Theater Systems
Format profile : MA
Codec ID : A_DTS
Duration : 1h 59mn
Bit rate mode : Variable
Channel(s) : 6 channels
Channel positions : Front: L C R, Surround: L R, LFE
Sampling rate : 48.0 KHz
Resolution : 24 bits
Video delay : -42ms

Audio #3
ID : 4
Format : AC-3
Format/Info : Audio Coding 3
Format profile : Dolby Digital
Codec ID : A_AC3
Duration : 1h 59mn
Bit rate mode : Constant
Bit rate : 192 Kbps
Channel(s) : 2 channels
Channel positions : L R
Sampling rate : 48.0 KHz
Video delay : -42ms
Stream size : 163 MiB (1%)

Audio #4
ID : 5
Format : AC-3
Format/Info : Audio Coding 3
Format profile : Dolby Digital
Codec ID : A_AC3
Duration : 1h 59mn
Bit rate mode : Constant
Bit rate : 192 Kbps
Channel(s) : 2 channels
Channel positions : L R
Sampling rate : 48.0 KHz
Video delay : -42ms
Stream size : 163 MiB (1%)

Text #1
ID : 6
Format : PGS
Codec ID : S_HDMV/PGS
Codec ID/Info : The same subtitle format used on BDs/HD-DVDs

Text #2
ID : 7
Format : PGS
Codec ID : S_HDMV/PGS
Codec ID/Info : The same subtitle format used on BDs/HD-DVDs

Text #3
ID : 8
Format : PGS
Codec ID : S_HDMV/PGS
Codec ID/Info : The same subtitle format used on BDs/HD-DVDs

Text #4
ID : 9
Format : PGS
Codec ID : S_HDMV/PGS
Codec ID/Info : The same subtitle format used on BDs/HD-DVDs
Скріншоти




Подяка:

панам drakon87 та pohgejib за українську доріжку
пану MAKAPOHHIK за українізований постер


Джерело: &
Особиста оцінка: 10 - без зайвих вагань рекомендую всім!


Золотий реліз (завантажене не впливає на рейтинг)
 Трекер:    Зареєстрований   

Завантажити / скачати фільм українською



відео для новачків



 Зареєстрований:   2015-04-23 14:29
 Розмір:   21.35 GB 
 Оцінка фільму:   10/10 (Голосів: 11)
   
Інші релізи
   Місія Сереніті / Serenity (2005) patriot2305  9 / 0   1.3 GB   2013-09-01 15:05 
   Місія Сереніті / Serenity (2005) 720p Ukr/Eng | Sub Eng pohgejib  7 / 0   4.81 GB   2011-02-21 16:26 
Dorian|Gray 
Новенький


З нами з: 17.07.15
Востаннє: 03.12.16
Повідомлень: 2

2015-11-25 16:51  
сіди, поверніться хоч на хвилинку!
скачав 99.2% і все... (((

O_omarella! 
Новенький


З нами з: 14.06.13
Востаннє: 03.12.16
Повідомлень: 12

2016-07-07 19:57  
Дякую за якість!
Ваш часовий пояс: GMT + 2 Години

Нова тема   Відповісти